Login
Username:
Password:
[Signup]
[Recover Account]


Browse Torrents

Poll


You must be logged in to view polls



Latest Torrents
DuckTales.2017.S01...
- [Size: 349.92 MB]

Mile 22 2018 720p ...
- [Size: 1.32 GB]

Omkara 2006 Hindi ...
- [Size: 6.25 GB]

NASCAR.Xfinity.Ser...
- [Size: 3.38 GB]

Mile.22.2018.HDCAM...
- [Size: 1.15 GB]


Torrent Details For "Yaar Gaddar (1994) Movie 720p AVC HDrip AAC Audio-HDprintMovies"

Yaar Gaddar (1994) Movie 720p AVC HDrip AAC Audio-HDprintMovies

Download this torrent | Magnet Download
Health:
Seeds: 0
Leechers: 0
Completed:
Last Checked: 16-08-2018 15:36:41
External Torrent
Update Stats



Poster


iMDB
Imdb Picture Title: Yaar Gaddar
Year: 1994
Runtime: 155 minutes
Votes: 81
Rating: 4.4/10
Language: Hindi
Country: India
All Genres: Action
Plot Outline: Inspector Shanker Verma is an honest and dedicated Police Inspector, who has been serving on the police force for many years. He lives with his mom, and a brother, Jai. Shankar was in love ...
Director: Umesh Mehra

Music: Anu Malik
Cast:
Saif Ali Khan as Jai Verma
Sweta as Shashi
Somy Ali as Jai's girlfriend
Mithun Chakraborty as Shanker Verma
Prem Chopra as Raghunath Singh
Gulshan Grover as
Puneet Issar as
Johnny Lever as Police Inspector
Anjana Mumtaz as Mrs. Verma
Yunus Parvez as Mulchand



Details
Name:Yaar Gaddar (1994) Movie 720p AVC HDrip AAC Audio-HDprintMovies
Description:


General
Complete name                            : Yaar Gaddar (1994) Movie 720p AVC AAC Audio-(Suman142).mp4
Format                                   : dash
Codec ID                                 : dash (iso6/mp41)
File size                                : 2.73 GiB
Duration                                 : 2 h 27 min
Overall bit rate                         : 2 642 kb/s
Encoded date                             : UTC 2018-04-15 20:10:39
Tagged date                              : UTC 2018-04-15 20:10:39

Video
ID                                       : 2
Format                                   : AVC
Format/Info                              : Advanced Video Codec
Format profile                           : [email protected]
Format settings                          : 1 Ref Frames
Format settings, CABAC                   : No
Format settings, RefFrames               : 1 frame
Format settings, GOP                     : M=1, N=13
Codec ID                                 : avc1
Codec ID/Info                            : Advanced Video Coding
Duration                                 : 2 h 27 min
Bit rate                                 : 2 544 kb/s
Width                                    : 1 280 pixels
Height                                   : 720 pixels
Display aspect ratio                     : 16:9
Frame rate mode                          : Constant
Frame rate                               : 25.000 FPS
Color space                              : YUV
Chroma subsampling                       : 4:2:0
Bit depth                                : 8 bits
Scan type                                : Progressive
Bits/(Pixel*Frame)                       : 0.110
Stream size                              : 2.63 GiB (96%)
Encoded date                             : UTC 2018-04-15 20:10:39
Tagged date                              : UTC 2018-04-15 20:10:39

Audio
ID                                       : 1
Format                                   : AAC
Format/Info                              : Advanced Audio Codec
Format profile                           : HE-AAC / LC
Format settings                          : Implicit
Codec ID                                 : mp4a-40-2
Duration                                 : 2 h 27 min
Bit rate                                 : 92.3 kb/s
Channel(s)                               : 2 channels
Channel positions                        : Front: L R
Sampling rate                            : 48.0 kHz / 24.0 kHz
Frame rate                               : 23.438 FPS (1024 SPF)
Compression mode                         : Lossy
Stream size                              : 97.5 MiB (3%)
Encoded date                             : UTC 2018-04-15 20:10:39
Tagged date                              : UTC 2018-04-15 20:10:39
















Category:Movies > Bollywood
Lang:Hindi
Total Size:2.73 GB
Info Hash:09fae2205bae66a15763b1fd34fe54b9dceffd9e
Added By:suman142
Date Added:17-04-2018 06:32:18
Downloads:496

Ratings:Not Yet Rated (Log in to rate it)


Tracker:
udp://tracker.coppersurfer.tk:6969/announce


File List: 


Comments

No comments still posted

Copyright 2018 Hon3yHD -|- Page Generated In 5.965484 secs.
-|- RSS Feed -|- Feed Info