Login
Username:
Password:
[Signup]
[Recover Account]


Browse Torrents

Poll


You must be logged in to view polls



Latest Torrents
Rampage 2018.720p....
- [Size: 1.11 GB]

Rampage 2018.1080p...
- [Size: 3.11 GB]

Red.Sparrow.(2018)...
- [Size: 4.22 GB]

UFC Fight Night 13...
- [Size: 1.97 GB]

The First Purge 20...
- [Size: 1.48 GB]


Torrent Details For "Not Cinderellas Type 2018 HDRip x264 AAC [MW]"

Not Cinderellas Type 2018 HDRip x264 AAC [MW]

Download this torrent | Magnet Download
Health:
Seeds: 2
Leechers: 71
Completed: 19 
Last Checked: 17-04-2018 11:30:52
External Torrent
Update Stats


Watch-Free-HD     Download

Poster
No poster


Watch-Free-HD     Download

Details
Name:Not Cinderellas Type 2018 HDRip x264 AAC [MW]
Description:

 



General
Format                                   : Matroska
Format version                           : Version 4 / Version 2
File size                                : 759 MiB
Duration                                 : 1 h 37 min
Overall bit rate                         : 1 094 kb/s

Video
ID                                       : 1
Format                                   : AVC
Format/Info                              : Advanced Video Codec
Format profile                           : [email protected]
Format settings                          : CABAC / 4 Ref Frames
Format settings, CABAC                   : Yes
Format settings, RefFrames               : 4 frames
Codec ID                                 : V_MPEG4/ISO/AVC
Duration                                 : 1 h 37 min
Bit rate                                 : 1 000 kb/s
Width                                    : 720 pixels
Height                                   : 400 pixels
Display aspect ratio                     : 16:9
Frame rate mode                          : Constant
Frame rate                               : 23.976 (24000/1001) FPS
Color space                              : YUV
Chroma subsampling                       : 4:2:0
Bit depth                                : 8 bits
Scan type                                : Progressive
Bits/(Pixel*Frame)                       : 0.145
Stream size                              : 692 MiB (91%)
Writing library                          : x264 core 155 r2893 b00bcaf
Default                                  : Yes
Forced                                   : No

Audio
ID                                       : 2
Format                                   : AAC
Format/Info                              : Advanced Audio Codec
Format profile                           : HE-AAC / LC
Format settings                          : Explicit
Codec ID                                 : A_AAC-2
Duration                                 : 1 h 37 min
Bit rate                                 : 96.0 kb/s
Channel(s)                               : 2 channels
Channel positions                        : Front: L R
Sampling rate                            : 48.0 kHz / 24.0 kHz
Frame rate                               : 23.438 FPS (1024 SPF)
Compression mode                         : Lossy
Stream size                              : 65.7 MiB (9%)
Default                                  : Yes
Forced                                   : No



           


Category:Movies > HDRips
Lang:English  English
Total Size:759.14 MB
Info Hash:c04b94824bc34cf928e3b074fe9432758aca31cd
Added By:Freaky
Date Added:17-04-2018 11:30:28
Downloads:51

Download Torrent

Ratings:Not Yet Rated (Log in to rate it)


Tracker:
udp://tracker.pirateparty.gr:6969/announce

This Torrent also has backup trackers
URLSeedersLeechersCompleted
http://tracker.vanitycore.co:6969/announce051
http://public.popcorn-tracker.org:6969/announce051


File List: 


Comments

<< Previous      Next >>
1 - 1

[Report] Posted: 17-04-2018 at 11:34:49
hameedkh139



Uploaded: 0.00 B
Downloaded: 0.00 B
Ratio: ---


1 - 1
<< Previous      Next >>


Powered by 10 Hamsters v2-svn -|- Page Generated In 3.426507 secs.
-|- RSS Feed -|- Feed Info
Theme By: Nikkbu