Login
Username:
Password:
[Signup]
[Recover Account]


Browse Torrents

Poll


You must be logged in to view polls



Latest Torrents
The Remix 2018 S01...
- [Size: 6.16 GB]

Mysteries.at.the.M...
- [Size: 1,020.77 MB]

Mysteries.at.the.M...
- [Size: 1.15 GB]

18+.Red.Sparrow.20...
- [Size: 2.02 GB]

The.Opposition.wit...
- [Size: 278.94 MB]


Torrent Details For "Winchester (2018) English 720p WEB-DL x264 AAC @ KatMaster"

Winchester (2018) English 720p WEB-DL x264 AAC @ KatMaster

Download this torrent | Magnet Download
Health:
Seeds: 0
Leechers: 0
Completed:
Last Checked: 17-04-2018 13:04:50
External Torrent
Update Stats


Watch-Free-HD     Download

Poster


iMDB
Imdb Picture Title: Winchester
Year: 2018
Runtime: 99 minutes
Votes: 5116
Rating: 5.3/10
Language: English
Country: Australia, USA
All Genres: Biography, Fantasy, Horror, Mystery, Thriller
Plot Outline: Ensconced in her sprawling California mansion, eccentric firearm heiress Sarah Winchester believes she is haunted by the souls of people killed by the Winchester repeating rifle.
Tagline: Inspired by True Events at the Most Haunted House in History.
Director: Michael Spierig
Peter Spierig
Writing By: Tom Vaughan,Michael Spierig,Peter Spierig,
Produced By: Tobin Armbrust,Michael Burton,Benedict Carver,Yvonne Collins,Daniel Diamond,Brian J. Gilbert,Antonia Lianos,Tim McGahan,Bryce Menzies,Simon Oakes,Marc Schipper,Brett Tomberlin,Andrew Trapani,
Music: Peter Spierig
Cast:
Helen Mirren as Sarah Winchester
Sarah Snook as Marion Marriott
Finn Scicluna-O'Prey as Henry Marriott
Jason Clarke as Dr. Eric Price
Emm Wiseman as Nancy
Alana Fagan as Partially Dressed Lady #1
Rebecca Makar as Partially Dressed Lady #2
Tyler Coppin as Arthur Gates
Michael Carman as Frank
Angus Sampson as John Hansen
Trailers:
Official Trailer
Official Tease


Watch-Free-HD     Download

Details
Name:Winchester (2018) English 720p WEB-DL x264 AAC @ KatMaster
Description:
[code][FORMAT]:…………………….[ Matroska
[ENCODER]:…………..[ KatMaster
[THANKS TO]:…………………..[ EtHD[/code]

Movie Info:

Genres: Biography, Fantasy, Horror
Directed by: Michael Spierig, Peter Spierig
Writers: Tom Vaughan, Michael Spierig
Stars Cast: Helen Mirren, Sarah Snook, Finn Scicluna-O’Prey
IMDb: https://www.imdb.com/title/tt1072748/
Language: English

Video
ID                          : 1
Format                      : AVC
Format/Info                 : Advanced Video Codec
Format profile              : [email protected]
Format settings             : CABAC / 4 Ref Frames
Format settings, CABAC      : Yes
Format settings, ReFrames   : 4 frames
Codec ID                    : V_MPEG4/ISO/AVC
Duration                    : 1 h 39 min
Bit rate                    : 1 000 kb/s
Width                       : 1 280 pixels
Height                      : 532 pixels
Display aspect ratio        : 2.40:1
Frame rate mode             : Constant
Frame rate                  : 23.976 (24000/1001) FPS
Color space                 : YUV
Chroma subsampling          : 4:2:0
Bit depth                   : 8 bits
Scan type                   : Progressive
Bits/(Pixel*Frame)          : 0.061
Stream size                 : 703 MiB (88%)

Audio
ID                          : 2
Format                      : AAC
Format/Info                 : Advanced Audio Codec
Format profile              : LC
Codec ID                    : A_AAC-2
Duration                    : 1 h 39 min
Bit rate                    : 128 kb/s
Channel(s)                  : 2 channels
Channel positions           : Front: L R
Sampling rate               : 48.0 kHz
Frame rate                  : 46.875 FPS (1024 SPF)
Compression mode            : Lossy
Delay relative to video     : -21 ms
Stream size                 : 91.1 MiB (11%)


Screenshots:

 
 
 
 
 
Category:Movies > WEB-HD
Lang:English  English
Total Size:795.99 MB
Info Hash:4b113a50364f4f1d63a35811914fcbe0f92e0418
Added By:KatMaster
Date Added:17-04-2018 13:04:50
Downloads:64

Download Torrent

Ratings:Not Yet Rated (Log in to rate it)


Tracker:
udp://tracker.coppersurfer.tk:6969/announce


File List: 


Comments

No comments still posted

Powered by 10 Hamsters v2-svn -|- Page Generated In 0.954753 secs.
-|- RSS Feed -|- Feed Info
Theme By: Nikkbu