Login
Username:
Password:
[Signup]
[Recover Account]


Browse Torrents

Poll


You must be logged in to view polls



Latest Torrents
Snoop.Dogg.Present...
- [Size: 251.68 MB]

Killing.Eve.S01E08...
- [Size: 721.80 MB]

Westworld.S02E06.P...
- [Size: 497.53 MB]

Deception.2018.S01...
- [Size: 303.52 MB]

Killing.Eve.S01E08...
- [Size: 203.06 MB]


Torrent Details For "Deadpool 2 (2018) English HDTS-Rip - 720p - x264 - MP3 - 800MB [MoviezAddiction]"

Deadpool 2 (2018) English HDTS-Rip - 720p - x264 - MP3 - 800MB [MoviezAddiction]

Download this torrent | Magnet Download
Health:
Seeds: 0
Leechers: 0
Completed:
Last Checked: 17-05-2018 10:10:14
External Torrent
Update Stats


Watch-Free-HD     Download

Poster
No poster


Watch-Free-HD     Download

Details
Name:Deadpool 2 (2018) English HDTS-Rip - 720p - x264 - MP3 - 800MB [MoviezAddiction]
Description:

Quote:


Deadpool 2 (2018) English HDTS-Rip - 720p - x264 - MP3 - 800MB [MoviezAddiction]
 
Seed Will Be Slow Visit Our Site For Instant Download
Visit & Support  www.MoviezAddiction.website
 Reliable & Cheapest Web Services From HostNetIndia
Encoded & Uploaded by  BestBuyRdp
 


Deadpool 2 (2018) English HDTS-Rip - 720p - x264 - MP3 - 800MB [MoviezAddiction]

[img] https://extraimage.net/images/...6f3ea79d06.jpg[/img]


Take It Or Leave It
Like Our Work Just leave Only 1 Valuable Comment
Keep Visit and Support  https://moviezaddiction.website


General
Unique ID                   : 208701945106191573741660984970639664181 (0x9D02885567DBE703B130D7D6686D6435)
Complete name               : E:\Torrents\Deadpool 2 (2018) English HDTS-Rip - 720p - x264 - MP3 - 800MB [MoviezAddiction]\Deadpool 2 (2018) English HDTS-Rip - 720p - x264 - MP3 - 800MB [MoviezAddiction].mkv
Format                      : Matroska
Format version              : Version 4 / Version 2
File size                   : 807 MiB
Duration                    : 1 h 49 min
Overall bit rate mode       : Variable
Overall bit rate            : 1 031 kb/s
Movie name                  : ...:::www.MoviezAddiction.website:::...
Encoded date                : UTC 2018-05-17 00:22:41
Writing application         : mkvmerge v12.0.0 ('Trust / Lust') 64bit
Writing library             : libebml v1.3.4 + libmatroska v1.4.5

Video
ID                          : 1
Format                      : AVC
Format/Info                 : Advanced Video Codec
Format profile              : [email protected]
Format settings             : CABAC / 4 Ref Frames
Format settings, CABAC      : Yes
Format settings, ReFrames   : 4 frames
Codec ID                    : V_MPEG4/ISO/AVC
Duration                    : 1 h 49 min
Bit rate                    : 938 kb/s
Width                       : 1 280 pixels
Height                      : 512 pixels
Display aspect ratio        : 2.500
Frame rate mode             : Constant
Frame rate                  : 29.970 (30000/1001) FPS
Color space                 : YUV
Chroma subsampling          : 4:2:0
Bit depth                   : 8 bits
Scan type                   : Progressive
Bits/(Pixel*Frame)          : 0.048
Stream size                 : 734 MiB (91%)
Title                       : ...:::www.MoviezAddiction.website:::...
Writing library             : x264 core 155 r2901 7d0ff22
Language                    : English
Default                     : Yes
Forced                      : No

Audio
ID                          : 2
Format                      : MPEG Audio
Format version              : Version 1
Format profile              : Layer 3
Format settings             : Joint stereo / MS Stereo
Codec ID                    : A_MPEG/L3
Codec ID/Hint               : MP3
Duration                    : 1 h 49 min
Bit rate mode               : Variable
Bit rate                    : 90.2 kb/s
Nominal bit rate            : 96.0 kb/s
Channel(s)                  : 2 channels
Sampling rate               : 48.0 kHz
Frame rate                  : 41.667 FPS (1152 SPF)
Compression mode            : Lossy
Stream size                 : 70.6 MiB (9%)
Title                       : ...:::www.MoviezAddiction.website:::...
Writing library             : LAME3.99r
Encoding settings           : -m j -V 4 -q 3 -lowpass 15.1 --abr 96
Language                    : English
Default                     : Yes
Forced                      : No


[img]https://i1.wp.com/moviezaddiction.website/wp-content/uploads/2018/02/Plot.jpeg[/img]
After surviving a near fatal bovine attack, a disfigured cafeteria chef (Wade Wilson) struggles to fulfill his dream of becoming Mayberry's hottest bartender while also learning to cope with his lost sense of taste. Searching to regain his spice for life, as well as a flux capacitor, Wade must battle ninjas, the Yakuza, and a pack of sexually aggressive canines, as he journeys around the world to discover the importance of family, friendship, and flavor - finding a new taste for adventure and earning the coveted coffee mug title of World's Best Lover.


 
 
 
 
 
 
 

[img] https://i1.wp.com/i.imgur.com/Ds7bb.gif[/img]


Category:Movies > Pre-Releases
Lang:Unknown/NA
Total Size:806.65 MB
Info Hash:6f154bf67dcb01d6ec79e8058ba7aaa6caed7144
Added By:Crazzyboy
Date Added:17-05-2018 10:10:14
Downloads:95

Download Torrent

Ratings:Not Yet Rated (Log in to rate it)


Tracker:
udp://tracker.coppersurfer.tk:6969/announce


File List: 


Comments

No comments still posted

Powered by 10 Hamsters v2-svn -|- Page Generated In 1.644486 secs.
-|- RSS Feed -|- Feed Info
Theme By: Nikkbu