Login
Username:
Password:
[Signup]
[Recover Account]


Browse Torrents

Poll


You must be logged in to view polls



Latest Torrents
Snoop.Dogg.Present...
- [Size: 251.68 MB]

Killing.Eve.S01E08...
- [Size: 721.80 MB]

Westworld.S02E06.P...
- [Size: 497.53 MB]

Deception.2018.S01...
- [Size: 303.52 MB]

Killing.Eve.S01E08...
- [Size: 203.06 MB]


Torrent Details For "Ilaaka - The Territory (2008) DTHRip 720p Hindi H.264 AAC [FIRST ON NET] - LatestHDMovies"

Ilaaka - The Territory (2008) DTHRip 720p Hindi H.264 AAC [FIRST ON NET] - LatestHDMovies

Download this torrent | Magnet Download
Health:
Seeds: 97
Leechers: 109
Completed: 108 
Last Checked: 17-05-2018 15:55:25
External Torrent
Update Stats


Watch-Free-HD     Download

Poster


Watch-Free-HD     Download

Details
Name:Ilaaka - The Territory (2008) DTHRip 720p Hindi H.264 AAC [FIRST ON NET] - LatestHDMovies
Description:




[[>>SAMPLE<<]]
 https://oload.stream/f/ufJAJqd...es___TeamSHAHID-.mp4







General
Unique ID                   : 176354188330031958731571264839252449340 (0x84AC94CA5427D71FCF5B9DF2DC9C183C)
Complete name               : C:\Users\SAJID COMPUTERS\Videos\Ilaaka - The Territory (2008) DTHRip 720p Hindi H.264 AAC [FIRST ON NET] - LatestHDMovies.mkv
Format                      : Matroska
Format version              : Version 4 / Version 2
File size                   : 551 MiB
Duration                    : 1 h 1 min
Overall bit rate            : 1 260 kb/s
Movie name                  : LatestHDMovies | TeamSHAHID
Encoded date                : UTC 2018-05-17 09:25:17
Writing application         : mkvmerge v23.0.0 ('The Bride Said No') 32-bit
Writing library             : libebml v1.3.6 + libmatroska v1.4.9
Cover                       : Yes
Attachments                 : Cover.jpg

Video
ID                          : 1
Format                      : AVC
Format/Info                 : Advanced Video Codec
Format profile              : [email protected]
Format settings             : 1 Ref Frames
Format settings, CABAC      : No
Format settings, ReFrames   : 1 frame
Format settings, GOP        : M=1, N=12
Codec ID                    : V_MPEG4/ISO/AVC
Duration                    : 1 h 1 min
Bit rate                    : 1 155 kb/s
Width                       : 1 024 pixels
Height                      : 576 pixels
Display aspect ratio        : 16:9
Frame rate mode             : Constant
Frame rate                  : 25.590 FPS
Color space                 : YUV
Chroma subsampling          : 4:2:0
Bit depth                   : 8 bits
Scan type                   : Progressive
Bits/(Pixel*Frame)          : 0.077
Stream size                 : 507 MiB (92%)
Title                       : LatestHDMovies | TeamSHAHID
Writing library             : x264 core 135
Encoding settings           : cabac=0 / ref=1 / deblock=1:0:0 / analyse=0x1:0x111 / me=dia / subme=7 / psy=1 / psy_rd=1.00:0.00 / mixed_ref=0 / me_range=4 / chroma_me=1 / trellis=0 / 8x8dct=0 / cqm=0 / deadzone=21,11 / fast_pskip=1 / chroma_qp_offset=-2 / threads=2 / lookahead_threads=1 / sliced_threads=0 / nr=0 / decimate=1 / interlaced=0 / bluray_compat=0 / constrained_intra=0 / bframes=0 / weightp=0 / keyint=12 / keyint_min=7 / scenecut=40 / intra_refresh=0 / rc_lookahead=12 / rc=abr / mbtree=1 / bitrate=1155 / ratetol=1.0 / qcomp=0.60 / qpmin=3 / qpmax=51 / qpstep=4 / ip_ratio=1.40 / aq=1:1.00
Language                    : Hindi
Default                     : Yes
Forced                      : No

Audio
ID                          : 2
Format                      : AAC
Format/Info                 : Advanced Audio Codec
Format profile              : LC
Codec ID                    : A_AAC-2
Duration                    : 1 h 1 min
Bit rate                    : 96.0 kb/s
Channel(s)                  : 2 channels
Channel positions           : Front: L R
Sampling rate               : 44.1 kHz
Frame rate                  : 43.066 FPS (1024 SPF)
Compression mode            : Lossy
Delay relative to video     : -36 ms
Stream size                 : 41.9 MiB (8%)
Title                       : LatestHDMovies | TeamSHAHID
Language                    : Hindi
Default                     : Yes
Forced                      : No



 
                         
Category:Movies > South Dub
Lang:Hindi
Total Size:550.54 MB
Info Hash:fb837ae7e78c18f0cc29212973824efc8fcf15a2
Added By:LatestHDMovies
Date Added:17-05-2018 10:30:44
Downloads:639

Download Torrent

Ratings:Not Yet Rated (Log in to rate it)


Tracker:
udp://tracker.openbittorrent.com:80/announce


File List: 


Comments

No comments still posted

Powered by 10 Hamsters v2-svn -|- Page Generated In 1.479384 secs.
-|- RSS Feed -|- Feed Info
Theme By: Nikkbu