Login
Username:
Password:
[Signup]
[Recover Account]


Browse Torrents

Poll


You must be logged in to view polls



Latest Torrents
Feral.2018.720p.AM...
- [Size: 1.79 GB]

Feral.2018.HDRip.X...
- [Size: 1.31 GB]

Ibiza.2018.WEBRip....
- [Size: 701.89 MB]

Live.PD.Police.Pat...
- [Size: 274.25 MB]

Live.PD.Police.Pat...
- [Size: 274.67 MB]


Torrent Details For "Deadpool 2 (2018) HDTS-Rip - 720p - x264 Dual Audio [English - Hindi] - MP3 - 900MB [MoviezAddi..."

Deadpool 2 (2018) HDTS-Rip - 720p - x264 Dual Audio [English - Hindi] - MP3 - 900MB [MoviezAddi...

Download this torrent | Magnet Download
Health:
Seeds: 22
Leechers: 1,534
Completed:
Last Checked: 17-05-2018 16:12:47
External Torrent
Update Stats


Watch-Free-HD     Download

Poster
No poster


Watch-Free-HD     Download

Details
Name:Deadpool 2 (2018) HDTS-Rip - 720p - x264 Dual Audio [English - Hindi] - MP3 - 900MB [MoviezAddi...
Description:

Quote:


Deadpool 2 (2018) HDTS-Rip - 720p - x264 Dual Audio [English - Hindi] - MP3 - 800MB [MoviezAddiction]
 
Seed Will Be Slow Visit Our Site For Instant Download
Visit & Support  www.MoviezAddiction.website
 Reliable & Cheapest Web Services From HostNetIndia
Encoded & Uploaded by  BestBuyRdp
 


Deadpool 2 (2018) HDTS-Rip - 720p - x264 Dual Audio [English - Hindi] - MP3 - 800MB [MoviezAddiction]

[img] https://extraimage.net/images/...6f3ea79d06.jpg[/img]


Take It Or Leave It
Like Our Work Just leave Only 1 Valuable Comment
Keep Visit and Support  https://moviezaddiction.website





General

Format                      : Matroska
Format version              : Version 4 / Version 2
File size                   : 907 MiB
Duration                    : 1 h 49 min
Overall bit rate mode       : Variable
Overall bit rate            : 1 159 kb/s
Movie name                  : ...:::www.MoviezAddiction.website:::...
Encoded date                : UTC 2018-05-17 07:43:04
Writing application         : mkvmerge v12.0.0 ('Trust / Lust') 64bit
Writing library             : libebml v1.3.4 + libmatroska v1.4.5

Video
ID                          : 1
Format                      : AVC
Format/Info                 : Advanced Video Codec
Format profile              : [email protected]
Format settings             : CABAC / 4 Ref Frames
Format settings, CABAC      : Yes
Format settings, ReFrames   : 4 frames
Codec ID                    : V_MPEG4/ISO/AVC
Duration                    : 1 h 49 min
Bit rate                    : 938 kb/s
Width                       : 1 280 pixels
Height                      : 512 pixels
Display aspect ratio        : 2.500
Frame rate mode             : Constant
Frame rate                  : 29.970 (30000/1001) FPS
Color space                 : YUV
Chroma subsampling          : 4:2:0
Bit depth                   : 8 bits
Scan type                   : Progressive
Bits/(Pixel*Frame)          : 0.048
Stream size                 : 734 MiB (81%)
Title                       : ...:::www.MoviezAddiction.website:::...
Writing library             : x264 core 155 r2901 7d0ff22
Language                    : English
Default                     : Yes
Forced                      : No

Audio #1
ID                          : 2
Format                      : MPEG Audio
Format version              : Version 1
Format profile              : Layer 3
Format settings             : Joint stereo / MS Stereo
Codec ID                    : A_MPEG/L3
Codec ID/Hint               : MP3
Duration                    : 1 h 49 min
Bit rate mode               : Variable
Bit rate                    : 90.2 kb/s
Nominal bit rate            : 96.0 kb/s
Channel(s)                  : 2 channels
Sampling rate               : 48.0 kHz
Frame rate                  : 41.667 FPS (1152 SPF)
Compression mode            : Lossy
Stream size                 : 70.6 MiB (8%)
Title                       : ...:::www.MoviezAddiction.website:::...
Writing library             : LAME3.99r
Encoding settings           : -m j -V 4 -q 3 -lowpass 15.1 --abr 96
Language                    : English
Default                     : Yes
Forced                      : No

Audio #2
ID                          : 3
Format                      : MPEG Audio
Format version              : Version 1
Format profile              : Layer 3
Format settings             : Joint stereo / MS Stereo
Codec ID                    : A_MPEG/L3
Codec ID/Hint               : MP3
Duration                    : 1 h 49 min
Bit rate mode               : Constant
Bit rate                    : 128 kb/s
Channel(s)                  : 2 channels
Sampling rate               : 44.1 kHz
Frame rate                  : 38.281 FPS (1152 SPF)
Compression mode            : Lossy
Stream size                 : 100 MiB (11%)
Title                       : ...:::www.MoviezAddiction.website:::...
Writing library             : LAME3.98.2
Language                    : Hindi
Default                     : No
Forced                      : No



[img]https://i1.wp.com/moviezaddiction.website/wp-content/uploads/2018/02/Plot.jpeg[/img]
After surviving a near fatal bovine attack, a disfigured cafeteria chef (Wade Wilson) struggles to fulfill his dream of becoming Mayberry's hottest bartender while also learning to cope with his lost sense of taste. Searching to regain his spice for life, as well as a flux capacitor, Wade must battle ninjas, the Yakuza, and a pack of sexually aggressive canines, as he journeys around the world to discover the importance of family, friendship, and flavor - finding a new taste for adventure and earning the coveted coffee mug title of World's Best Lover.


 
 
 
 
 
 
 

[img] https://i1.wp.com/i.imgur.com/Ds7bb.gif[/img]


Category:Movies > Hollywood Dub
Lang:Unknown/NA
Total Size:907.16 MB
Info Hash:e9cc3c7ec2728d85dbf707a6af24522bcae59ddc
Added By:Crazzyboy
Date Added:17-05-2018 14:43:44
Downloads:455

Download Torrent

Ratings:Not Yet Rated (Log in to rate it)


Tracker:
udp://tracker.coppersurfer.tk:6969/announce


File List: 


Comments

No comments still posted

Powered by 10 Hamsters v2-svn -|- Page Generated In 1.371598 secs.
-|- RSS Feed -|- Feed Info
Theme By: Nikkbu