Login
Username:
Password:
[Signup]
[Recover Account]


Browse Torrents

Poll


You must be logged in to view polls



Latest Torrents
The Broken Key(201...
- [Size: 1.51 GB]

A.Blessing.From.th...
- [Size: 79.74 MB]

Being.Serena.S01E0...
- [Size: 203.10 MB]

Star.S02E16.PROPER...
- [Size: 496.61 MB]

Being.Serena.S01E0...
- [Size: 205.42 MB]


Torrent Details For "Black Panther (2018) BluRay 720p x264 Dual Audio [Hindi DD2.0 ORG - English DD2.0] - Esub ~ Ran..."

Black Panther (2018) BluRay 720p x264 Dual Audio [Hindi DD2.0 ORG - English DD2.0] - Esub ~ Ran...

Download this torrent | Magnet Download
Health:
Seeds: 76
Leechers: 320
Completed: 286 
Last Checked: 18-05-2018 05:21:13
External Torrent
Update Stats


Watch-Free-HD     Download

Poster


iMDB
Imdb Picture Title: Black Panther
Year: 2018
Runtime: 134 minutes
Votes: 7393
Rating: 6.7/10
Language: English
Country: USA
All Genres: Action, Adventure, Sci-Fi
Plot Outline: T'Challa, after the death of his father, the King of Wakanda, returns home to the isolated, technologically advanced African nation to succeed to the throne and take his rightful place as king.
Tagline: Hero. Legend. King.
Director: Ryan Coogler
Writing By: Ryan Coogler,Joe Robert Cole,Stan Lee,Jack Kirby,
Produced By: Victoria Alonso,Jeffrey Chernov,Louis D'Esposito,Kevin Feige,David J. Grant,Stan Lee,Nate Moore,
Music: Ludwig Göransson
Cast:
Chadwick Boseman as T'Challa / Black Panther
Michael B. Jordan as Erik Killmonger
Lupita Nyong'o as Nakia
Danai Gurira as Okoye
Martin Freeman as Everett K. Ross
Daniel Kaluuya as W'Kabi
Letitia Wright as Shuri
Winston Duke as M'Baku
Sterling K. Brown as N'Jobu
Angela Bassett as Ramonda
Trailers:
"Entourage" TV Spot
Rise TV Spot
Black Panther Trailer
"King" TV Spot
Official Trailer
Teaser Trailer


Watch-Free-HD     Download

Details
Name:Black Panther (2018) BluRay 720p x264 Dual Audio [Hindi DD2.0 ORG - English DD2.0] - Esub ~ Ran...
Description:
Black Panther 2018 BluRay 720p x264 Dual Audio [Hindi DD2.0 ORG - English DD2.0] - Esub ~ Ranvijay

 

Thanks To ® I'm Loser ® For Hindi Audio

Format                                   : Matroska
Format version                           : Version 4 / Version 2
File size                                : 1.47 GiB
Duration                                 : 2 h 14 min
Overall bit rate                         : 1 561 kb/s
Movie name                               : Black Panther 2018 720p BluRay x264 Dual Audio [Hindi DD2.0 ORG - English DD2.0] - Esub ~ Ranvijay

Video
ID                                       : 1
Format                                   : AVC
Format/Info                              : Advanced Video Codec
Duration                                 : 2 h 14 min
Bit rate                                 : 1 079 kb/s
Width                                    : 1 280 pixels
Height                                   : 536 pixels
Display aspect ratio                     : 2.40:1
Frame rate mode                          : Constant
Frame rate                               : 23.976 (24000/1001) FPS
Color space                              : YUV
Chroma subsampling                       : 4:2:0
Bit depth                                : 8 bits
Scan type                                : Progressive
Bits/(Pixel*Frame)                       : 0.066
Stream size                              : 1.01 GiB (69%)
Title                                    : ~Ranvijay~
Default                                  : Yes
Forced                                   : No
Color range                              : Limited
Color primaries                          : BT.709
Matrix coefficients                      : BT.709

Audio #1
ID                                       : 2
Format                                   : AC-3
Format/Info                              : Audio Coding 3
Codec ID                                 : A_AC3
Duration                                 : 2 h 14 min
Bit rate mode                            : Constant
Bit rate                                 : 384 kb/s
Channel(s)                               : 2 channels
Channel positions                        : Front: L R
Sampling rate                            : 48.0 kHz
Frame rate                               : 31.250 FPS (1536 SPF)
Bit depth                                : 16 bits
Compression mode                         : Lossy
Stream size                              : 370 MiB (25%)
Title                                    : ~Ranvijay~
Language                                 : Hindi
Service kind                             : Complete Main
Default                                  : Yes
Forced                                   : No

Audio #2
ID                                       : 3
Format                                   : AAC
Format/Info                              : Advanced Audio Codec
Format profile                           : LC
Codec ID                                 : A_AAC-2
Duration                                 : 2 h 14 min
Bit rate                                 : 89.3 kb/s
Channel(s)                               : 2 channels
Channel positions                        : Front: L R
Sampling rate                            : 48.0 kHz
Frame rate                               : 46.875 FPS (1024 SPF)
Compression mode                         : Lossy
Delay relative to video                  : 9 ms
Stream size                              : 85.9 MiB (6%)
Title                                    : ~Ranvijay~
Language                                 : English
Default                                  : No
Forced                                   : No

Text
ID                                       : 4
Format                                   : VobSub
Muxing mode                              : zlib
Codec ID                                 : S_VOBSUB
Codec ID/Info                            : Picture based subtitle format used on DVDs
Duration                                 : 2 h 14 min
Bit rate                                 : 8 920 b/s
Count of elements                        : 1835
Stream size                              : 8.56 MiB (1%)
Title                                    : ~Ranvijay~
Language                                 : English
Default                                  : Yes
Forced                                   : No

Menu
00:00:00.000                             : en:The Story of Home
00:06:56.291                             : en:The Succession to the Throne
00:12:02.805                             : en:Time to be King
00:19:12.360                             : en:Let the Challenge Begin
00:28:32.961                             : en:The Ancestral Plane
00:33:11.698                             : en:Extradition
00:40:57.497                             : en:Casino Mission
00:48:34.036                             : en:Busan Car Chase
00:53:46.098                             : en:Interrogation
01:01:57.339                             : en:Sacrifices
01:08:33.026                             : en:Blood Rights
01:16:46.769                             : en:Ritual Combat
01:22:24.022                             : en:Burn it All
01:31:21.434                             : en:Jabariland
01:41:15.361                             : en:Two Panthers
01:50:56.483                             : en:The Battle for Wakanda
01:59:16.941                             : en:A New Wakanda
02:02:43.648                             : en:End Credits

               

Category:Movies > Hollywood Dub
Lang:Hindi
Total Size:1.49 GB
Info Hash:de4543f92b960b3de2519f96093780aa801e6802
Added By:Shrawankk
Date Added:17-05-2018 19:59:11
Downloads:524

Download Torrent

Ratings:Not Yet Rated (Log in to rate it)


Tracker:
UDP://TRACKER.LEECHERS-PARADISE.ORG:6969/ANNOUNCE

This Torrent also has backup trackers
URLSeedersLeechersCompleted
http://bigfoot1942.sektori.org:6969/announce000
http://tracker2.wasabii.com.tw:6969/announce000
http://announce.torrentsmd.com:6969/announce000
http://glotorrents.pw:80/announce000
https://jiotorrents.net/announce.php?pk=55d8c994ec11650b3b27ff3073f32fc836856f73000


File List: 


Comments

<< Previous      Next >>
1 - 1

[Report] Posted: 18-05-2018 at 08:05:59
wiki



Uploaded: 0.00 B
Downloaded: 0.00 B
Ratio: ---

GOod WOrk Thnks FOR Upload

1 - 1
<< Previous      Next >>


Powered by 10 Hamsters v2-svn -|- Page Generated In 1.431581 secs.
-|- RSS Feed -|- Feed Info
Theme By: Nikkbu