Login
Username:
Password:
[Signup]
[Recover Account]


Browse Torrents

Poll


You must be logged in to view polls



Latest Torrents
Faiths.Song.2017.H...
- [Size: 1.56 GB]

The.Watcher.in.the...
- [Size: 1.23 GB]

Dil Hi Toh Hai S01...
- [Size: 10.29 GB]

Mr. Fraud (2014) 7...
- [Size: 1.64 GB]

The.Wrong.Crush.20...
- [Size: 1.23 GB]


Torrent Details For "Black Panther 2018 1080p BluRay x264 Dual Audio [Hindi ORG DD 5.1 - English DD 5.1] ESub [MW]"

Black Panther 2018 1080p BluRay x264 Dual Audio [Hindi ORG DD 5.1 - English DD 5.1] ESub [MW]

Download this torrent | Magnet Download
Health:
Seeds: 291
Leechers: 148
Completed: 7,986 
Last Checked: 17-06-2018 12:37:02
External Torrent
Update Stats


Watch-Free-HD     Download

Poster
No poster


Watch-Free-HD     Download

Details
Name:Black Panther 2018 1080p BluRay x264 Dual Audio [Hindi ORG DD 5.1 - English DD 5.1] ESub [MW]
Description:

 


General
Format                                   : Matroska
Format version                           : Version 4 / Version 2
File size                                : 3.06 GiB
Duration                                 : 2 h 14 min
Overall bit rate                         : 3 251 kb/s

Video
ID                                       : 1
Format                                   : AVC
Format/Info                              : Advanced Video Codec
Format profile                           : [email protected]
Format settings                          : CABAC / 5 Ref Frames
Format settings, CABAC                   : Yes
Format settings, RefFrames               : 5 frames
Codec ID                                 : V_MPEG4/ISO/AVC
Duration                                 : 2 h 14 min
Bit rate                                 : 2 500 kb/s
Width                                    : 1 920 pixels
Height                                   : 804 pixels
Display aspect ratio                     : 2.40:1
Frame rate mode                          : Constant
Frame rate                               : 23.976 (24000/1001) FPS
Color space                              : YUV
Chroma subsampling                       : 4:2:0
Bit depth                                : 8 bits
Scan type                                : Progressive
Bits/(Pixel*Frame)                       : 0.068
Stream size                              : 2.33 GiB (76%)
Writing library                          : x264 core 155 r2893 b00bcaf
Default                                  : Yes
Forced                                   : No

Audio #1
ID                                       : 2
Format                                   : AC-3
Format/Info                              : Audio Coding 3
Codec ID                                 : A_AC3
Duration                                 : 2 h 14 min
Bit rate mode                            : Constant
Bit rate                                 : 384 kb/s
Channel(s)                               : 6 channels
Channel positions                        : Front: L C R, Side: L R, LFE
Sampling rate                            : 48.0 kHz
Frame rate                               : 31.250 FPS (1536 SPF)
Bit depth                                : 16 bits
Compression mode                         : Lossy
Stream size                              : 370 MiB (12%)
Language                                 : Hindi
Service kind                             : Complete Main
Default                                  : Yes
Forced                                   : No

Audio #2
ID                                       : 3
Format                                   : AC-3
Format/Info                              : Audio Coding 3
Codec ID                                 : A_AC3
Duration                                 : 2 h 14 min
Bit rate mode                            : Constant
Bit rate                                 : 384 kb/s
Channel(s)                               : 6 channels
Channel positions                        : Front: L C R, Side: L R, LFE
Sampling rate                            : 48.0 kHz
Frame rate                               : 31.250 FPS (1536 SPF)
Bit depth                                : 16 bits
Compression mode                         : Lossy
Stream size                              : 370 MiB (12%)
Language                                 : English
Service kind                             : Complete Main
Default                                  : No
Forced                                   : No

Text
ID                                       : 4
Format                                   : ASS
Codec ID                                 : S_TEXT/ASS
Codec ID/Info                            : Advanced Sub Station Alpha
Duration                                 : 2 h 14 min
Bit rate                                 : 80 b/s
Count of elements                        : 1587
Compression mode                         : Lossless
Stream size                              : 79.4 KiB (0%)
Default                                  : Yes
Forced                                   : No





               

Category:Movies > Hollywood Dub
Lang:Hindi
Total Size:3.06 GB
Info Hash:9838bb0bb53a5854be2db31b2381dfd9be22bdd8
Added By:Freaky
Date Added:10-06-2018 07:23:06
Downloads:475

Download Torrent

Ratings:Not Yet Rated (Log in to rate it)


Tracker:
udp://tracker.coppersurfer.tk:6969/announce


File List: 


Comments

No comments still posted

Powered by 10 Hamsters v2-svn -|- Page Generated In 1.644118 secs.
-|- RSS Feed -|- Feed Info
Theme By: Nikkbu