Login
Username:
Password:
[Signup]
[Recover Account]


Browse Torrents

Poll


You must be logged in to view polls



Latest Torrents
Alone.S05E02.720p....
- [Size: 779.15 MB]

James.Corden.2018....
- [Size: 643.70 MB]

Alone.S05E02.WEB.h...
- [Size: 572.93 MB]

Cooking.on.High.S0...
- [Size: 113.72 MB]

Cooking.on.High.S0...
- [Size: 114.38 MB]


Torrent Details For "Kaala (2018) PRE DVDRip 720p Hindi x264 AAC (Audio Cleaned) - LatestHDMovies"

Kaala (2018) PRE DVDRip 720p Hindi x264 AAC (Audio Cleaned) - LatestHDMovies

Download this torrent | Magnet Download
Health:
Seeds: 510
Leechers: 501
Completed: 866 
Last Checked: 11-06-2018 15:31:43
External Torrent
Update Stats


Watch-Free-HD     Download

Poster


iMDB
Imdb Picture Title: Kaala
Year: 2018
Runtime: 162 minutes
Votes: 1759
Rating: 8.5/10
Language: Tamil, Hindi, Telugu
Country: India
All Genres: Action, Crime, Drama
Plot Outline: Kaala is about the life of Nellai / Tirunelveli based Tamils who live in large number in Mumbai.


Tagline: Karikaalan
Director: Pa. Ranjith
Writing By: Shivgopal Krishna,Pa. Ranjith,Ranjeet Bahadur,M. Sreeramakrishna,Maginan,Aadhavan Theetchanya,
Produced By: Dhanush,Jairaj Parayan,
Music: Santhosh Narayanan
Cast:
Rajinikanth as Karikaalan
Nana Patekar as Harinath Desai
Samuthirakani as Anbu
Aruldoss as
Easwari Rao as Selvi
Huma Qureshi as Zareena
Anjali Patil as Puyal Charumathi Gaekwad
Sukanya as
Dileepan as
Aravind Akash as Shivaji Rao Gaekwad
Trailers:
Kaala Official Trailer


Watch-Free-HD     Download

Details
Name:Kaala (2018) PRE DVDRip 720p Hindi x264 AAC (Audio Cleaned) - LatestHDMovies
Description:





[[>>SAMPLE<<]]
 https://oload.stream/f/3ywLDTs...es___TeamSHAHID-.mp4







General
Unique ID                   : 113425645885019687862296321264460928477 (0x5554FC1B02996364851E969B08AE95DD)
Complete name               : C:\Users\SHAHID\Downloads\Video\Kaala (2018) PRE DVDRip 720p Hindi x264 AAC (Audio Cleaned) - LatestHDMovies.mkv
Format                      : Matroska
Format version              : Version 4 / Version 2
File size                   : 1.34 GiB
Duration                    : 2 h 37 min
Overall bit rate            : 1 224 kb/s
Movie name                  : LatestHDMovies | TeamSHAHID
Encoded date                : UTC 2018-06-11 06:37:18
Writing application         : mkvmerge v23.0.0 ('The Bride Said No') 32-bit
Writing library             : libebml v1.3.6 + libmatroska v1.4.9
Cover                       : Yes
Attachments                 : Cover.jpg

Video
ID                          : 1
Format                      : AVC
Format/Info                 : Advanced Video Codec
Format profile              : [email protected]
Format settings             : CABAC / 5 Ref Frames
Format settings, CABAC      : Yes
Format settings, ReFrames   : 5 frames
Codec ID                    : V_MPEG4/ISO/AVC
Duration                    : 2 h 37 min
Bit rate                    : 1 088 kb/s
Width                       : 1 280 pixels
Height                      : 528 pixels
Display aspect ratio        : 2.40:1
Frame rate mode             : Constant
Frame rate                  : 25.000 FPS
Color space                 : YUV
Chroma subsampling          : 4:2:0
Bit depth                   : 8 bits
Scan type                   : Progressive
Bits/(Pixel*Frame)          : 0.064
Stream size                 : 1.20 GiB (89%)
Title                       : LatestHDMovies | TeamSHAHID
Writing library             : x264 core 148 r2643 5c65704
Encoding settings           : cabac=1 / ref=5 / deblock=1:0:0 / analyse=0x3:0x113 / me=hex / subme=7 / psy=1 / psy_rd=1.00:0.00 / mixed_ref=1 / me_range=16 / chroma_me=1 / trellis=1 / 8x8dct=1 / cqm=0 / deadzone=21,11 / fast_pskip=1 / chroma_qp_offset=-2 / threads=8 / lookahead_threads=8 / sliced_threads=1 / slices=8 / nr=0 / decimate=1 / interlaced=0 / bluray_compat=0 / constrained_intra=0 / bframes=0 / weightp=2 / keyint=250 / keyint_min=25 / scenecut=40 / intra_refresh=0 / rc=abr / mbtree=0 / bitrate=1088 / ratetol=1.0 / qcomp=0.60 / qpmin=0 / qpmax=69 / qpstep=4 / ip_ratio=1.40 / aq=1:1.00
Language                    : Hindi
Default                     : Yes
Forced                      : No

Audio
ID                          : 2
Format                      : AAC
Format/Info                 : Advanced Audio Codec
Format profile              : LC
Codec ID                    : A_AAC-2
Duration                    : 2 h 37 min
Bit rate                    : 126 kb/s
Channel(s)                  : 2 channels
Channel positions           : Front: L R
Sampling rate               : 48.0 kHz
Frame rate                  : 46.875 FPS (1024 SPF)
Compression mode            : Lossy
Delay relative to video     : 9 ms
Stream size                 : 142 MiB (10%)
Title                       : LatestHDMovies | TeamSHAHID
Language                    : Hindi
Default                     : Yes
Forced                      : No



 
                             
Category:Movies > Bollywood
Lang:Hindi
Total Size:1.34 GB
Info Hash:d3e229bb8cf09508a7e15455583493147cd9d205
Added By:LatestHDMovies
Date Added:11-06-2018 07:50:27
Downloads:635

Download Torrent

Ratings:Not Yet Rated (Log in to rate it)


Tracker:
http://z.crazyhd.com:2710/2ea85e0b733ceaf9aa500a961dc1be51/announce


File List: 


Comments

<< Previous      Next >>
1 - 1

[Report] Posted: 11-06-2018 at 21:42:29
starmusichd



Uploaded: 0.00 B
Downloaded: 0.00 B
Ratio: ---

Please Visit Now:-    www.starmusichd.com

1 - 1
<< Previous      Next >>


Powered by 10 Hamsters v2-svn -|- Page Generated In 9.165898 secs.
-|- RSS Feed -|- Feed Info
Theme By: Nikkbu