Login
Username:
Password:
[Signup]
[Recover Account]


Browse Torrents

Poll


You must be logged in to view polls



Latest Torrents
Alone.S05E02.720p....
- [Size: 779.15 MB]

James.Corden.2018....
- [Size: 643.70 MB]

Alone.S05E02.WEB.h...
- [Size: 572.93 MB]

Cooking.on.High.S0...
- [Size: 113.72 MB]

Cooking.on.High.S0...
- [Size: 114.38 MB]


Torrent Details For "The.Night.Eats.the.World.2018.720p.BRRip.MovCr"

The.Night.Eats.the.World.2018.720p.BRRip.MovCr

Download this torrent | Magnet Download
Health:
Seeds: 8
Leechers: 7
Completed:
Last Checked: 11-06-2018 08:53:52
External Torrent
Update Stats


Watch-Free-HD     Download

Poster


iMDB
Imdb Picture Title: La nuit a dévoré le monde
Year: 2018
Runtime: 93 minutes
Votes: 243
Rating: 6.1/10
Language: Norwegian, English
Country: France
All Genres: Horror
Plot Outline: After waking up in an apartment where only the night before a party was raging, Sam is forced to come to grips with reality: He is now alone and the living dead have invaded the streets of Paris. Petrified with fear, Sam is going to have to barricade himself inside the building and organize his survival. But is he really the sole survivor?


Director: Dominique Rocher
Writing By: Pit Agarmen,Jérémie Guez,Guillaume Lemans,Dominique Rocher,
Produced By: Simon Arnal,Caroline Benjo,Julie Billy,Carole Scotta,
Music: David Gubitsch
Cast:
Anders Danielsen Lie as Sam
Golshifteh Farahani as Sarah
Denis Lavant as Alfred
Sigrid Bouaziz as Fanny
David Kammenos as Mathieu
Jean-Yves Cylly as Père immeuble d'en face
Nancy Murillo as Mère immeuble d'en face
Lina-Rose Djedje as Fille immeible d'en face
Victor Van Der Woerd as Zombie immeuble d'en face
Léo Poulet as Père famille zombie


Watch-Free-HD     Download

Details
Name:The.Night.Eats.the.World.2018.720p.BRRip.MovCr
Description:
 www.movcr.com

 https://www.imdb.com/title/tt4266076/

 

General
Unique ID                   : 335653425899653019093646798439453693443 (0xFC847F9654ED44C396909110F31E1603)
Complete name               : The.Night.Eats.the.World.2018.720p.BRRip.MovCr.mkv
Format                      : Matroska
Format version              : Version 4 / Version 2
File size                   : 877 MiB
Duration                    : 1 h 33 min
Overall bit rate            : 1 312 kb/s
Movie name                  : www.MovCr.com
Encoded date                : UTC 2018-06-11 07:37:21
Writing application         : mkvmerge v23.0.0 ('The Bride Said No') 64-bit
Writing library             : libebml v1.3.6 + libmatroska v1.4.9

Video
ID                          : 2
Format                      : AVC
Format/Info                 : Advanced Video Codec
Format profile              : [email protected]
Format settings, CABAC      : Yes
Format settings, ReFrames   : 8 frames
Codec ID                    : V_MPEG4/ISO/AVC
Duration                    : 1 h 33 min
Bit rate                    : 1 211 kb/s
Width                       : 1 280 pixels
Height                      : 688 pixels
Display aspect ratio        : 1.85:1
Frame rate mode             : Constant
Frame rate                  : 24.000 FPS
Color space                 : YUV
Chroma subsampling          : 4:2:0
Bit depth                   : 8 bits
Scan type                   : Progressive
Bits/(Pixel*Frame)          : 0.057
Stream size                 : 809 MiB (92%)
Title                       : www.MovCr.com
Writing library             : x264 core 155 r2893 b00bcaf
Encoding settings           : cabac=1 / ref=8 / deblock=1:0:0 / analyse=0x3:0x133 / me=umh / subme=9 / psy=1 / psy_rd=1.00:0.00 / mixed_ref=1 / me_range=16 / chroma_me=1 / trellis=2 / 8x8dct=1 / cqm=0 / deadzone=21,11 / fast_pskip=1 / chroma_qp_offset=-2 / threads=21 / lookahead_threads=1 / sliced_threads=0 / nr=0 / decimate=1 / interlaced=0 / bluray_compat=0 / constrained_intra=0 / bframes=3 / b_pyramid=2 / b_adapt=2 / b_bias=0 / direct=3 / weightb=1 / open_gop=0 / weightp=2 / keyint=240 / keyint_min=24 / scenecut=40 / intra_refresh=0 / rc_lookahead=60 / rc=2pass / mbtree=1 / bitrate=1211 / ratetol=1.0 / qcomp=0.60 / qpmin=0 / qpmax=69 / qpstep=4 / cplxblur=20.0 / qblur=0.5 / vbv_maxrate=62500 / vbv_bufsize=78125 / nal_hrd=none / filler=0 / ip_ratio=1.40 / aq=1:1.00
Default                     : Yes
Forced                      : No
Color range                 : Limited
Color primaries             : BT.709
Transfer characteristics    : BT.709
Matrix coefficients         : BT.709

Audio
ID                          : 1
Format                      : AAC
Format/Info                 : Advanced Audio Codec
Format profile              : HE-AAC / LC
Codec ID                    : A_AAC
Duration                    : 1 h 33 min
Bit rate                    : 100.0 kb/s
Channel(s)                  : 2 channels
Channel positions           : Front: L R
Sampling rate               : 48.0 kHz / 24.0 kHz
Frame rate                  : 23.438 FPS (1024 spf)
Compression mode            : Lossy
Delay relative to video     : 31 ms
Stream size                 : 66.8 MiB (8%)
Title                       : www.MovCr.com
Language                    : English
Default                     : Yes
Forced                      : No



 
 
 
 
 
 
 
 
Category:Movies > 720P Bluray
Lang:English  English
Total Size:876.83 MB
Info Hash:369497919868fb100039cd130805e7a291aca7ab
Added By:Kingmaker
Date Added:11-06-2018 08:44:49
Downloads:69

Download Torrent

Ratings:Not Yet Rated (Log in to rate it)


Tracker:
udp://tracker.openbittorrent.com:80/announce

This Torrent also has backup trackers
URLSeedersLeechersCompleted
http://share.camoe.cn:8080/announce000
http://t.nyaatracker.com:80/announce000
http://asnet.pw:2710/announce000
http://tracker.tfile.co:80/announce000
http://pt.lax.mx:80/announce000


File List: 


Comments

No comments still posted

Powered by 10 Hamsters v2-svn -|- Page Generated In 1.490058 secs.
-|- RSS Feed -|- Feed Info
Theme By: Nikkbu