Login
Username:
Password:
[Signup]
[Recover Account]


Browse Torrents

Poll


You must be logged in to view polls



Latest Torrents
RACE 3 (2018) Hind...
- [Size: 714.05 MB]

Rampage 2018 x264 ...
- [Size: 589.59 MB]

Race 3 (2018) ORG ...
- [Size: 940.19 MB]

Rampage 2018 720p ...
- [Size: 1.23 GB]

Rampage.2018.HDRip...
- [Size: 1.31 GB]


Torrent Details For "Left Behind (2014) Dual Audio [Hindi 2.0 - English 2.0] 720p BluRay x264 850MB"

Left Behind (2014) Dual Audio [Hindi 2.0 - English 2.0] 720p BluRay x264 850MB

Download this torrent | Magnet Download
Health:
Seeds: 196
Leechers: 166
Completed: 680 
Last Checked: 12-06-2018 13:55:40
External Torrent
Update Stats


Watch-Free-HD     Download

Poster


iMDB
Imdb Picture Title: Left Behind
Year: 2014
Runtime: 110 minutes
Votes: 30269
Rating: 3.1/10
Language: English
Country: USA, Canada
All Genres: Action, Drama, Fantasy, Mystery, Thriller
Plot Outline: A small group of survivors are left behind after millions of people suddenly vanish and the world is plunged into chaos and destruction.


Tagline: The End of the World has only just begun
Director: Vic Armstrong
Writing By: Jerry B. Jenkins,Tim LaHaye,Paul Lalonde,John Patus,
Produced By: James T. Bruce IV,Bill Busbice Jr.,Ed Clydesdale,David Heimbecker,Jason Hewitt,J. Young Kim,Peter Klutt,Randy LaHaye,Paul Lalonde,Michael Nilon,John Patus,Michael Walker,J. David Williams,R. Bryan Wright,
Music: Jack Lenz
Cast:
Nicolas Cage as Rayford Steele
Chad Michael Murray as Buck Williams
Cassi Thomson as Chloe Steele
Nicky Whelan as Hattie Durham
Jordin Sparks as Shasta Carvell
Lea Thompson as Irene Steele
Gary Grubbs as Dennis Beese
Quinton Aaron as Simon
Martin Klebba as Melvin Weir
Georgina Armstrong as Venice Baxter
Trailers:
Official Trailer
Trailer #1


Watch-Free-HD     Download

Details
Name:Left Behind (2014) Dual Audio [Hindi 2.0 - English 2.0] 720p BluRay x264 850MB
Description:
[code][FORMAT]:…………………….[ Matroska
[ENCODER]:…………..[ KatMaster
[THANKS TO]:…………………..[ TeamTR[/code]

Movie Info:

IMDB: https://www.imdb.com/title/tt2467046/

Genres: Action, Drama, Fantasy
Director: Vic Armstrong
Writers: Jerry B. Jenkins, Tim LaHaye
Stars: Nicolas Cage, Lea Thompson, Cassi Thomson
Language: Hindi (2.0) + English (2.0)

Video
ID                                       : 1
Format                                   : AVC
Format/Info                              : Advanced Video Codec
Format profile                           : [email protected]
Format settings                          : CABAC / 4 Ref Frames
Format settings, CABAC                   : Yes
Format settings, RefFrames               : 4 frames
Codec ID                                 : V_MPEG4/ISO/AVC
Duration                                 : 1 h 50 min
Bit rate                                 : 931 kb/s
Width                                    : 1 280 pixels
Height                                   : 536 pixels
Display aspect ratio                     : 2.40:1
Frame rate mode                          : Constant
Frame rate                               : 23.976 (24000/1001) FPS
Original frame rate                      : 23.976 (23976/1000) FPS
Color space                              : YUV
Chroma subsampling                       : 4:2:0
Bit depth                                : 8 bits
Scan type                                : Progressive
Bits/(Pixel*Frame)                       : 0.057
Stream size                              : 733 MiB (83%)
Title                                    : SSRmovies.ORG
Writing library                          : x264 core 142 r2479 dd79a61
Encoding settings                        : cabac=1 / ref=4 / deblock=1:-1:-1 / analyse=0x3:0x133 / me=umh / subme=9 / psy=1 / psy_rd=1.00:0.15 / mixed_ref=1 / me_range=24 / chroma_me=1 / trellis=2 / 8x8dct=1 / cqm=0 / deadzone=21,11 / fast_pskip=0 / chroma_qp_offset=-3 / threads=48 / lookahead_threads=4 / sliced_threads=0 / nr=0 / decimate=1 / interlaced=0 / bluray_compat=0 / constrained_intra=0 / bframes=3 / b_pyramid=2 / b_adapt=2 / b_bias=0 / direct=3 / weightb=1 / open_gop=0 / weightp=2 / keyint=250 / keyint_min=23 / scenecut=40 / intra_refresh=0 / rc_lookahead=60 / rc=2pass / mbtree=1 / bitrate=931 / ratetol=1.0 / qcomp=0.60 / qpmin=0 / qpmax=69 / qpstep=4 / cplxblur=20.0 / qblur=0.5 / vbv_maxrate=31250 / vbv_bufsize=31250 / nal_hrd=none / filler=0 / ip_ratio=1.40 / aq=1:1.00
Language                                 : English
Default                                  : Yes
Forced                                   : No
Color range                              : Limited
Color primaries                          : BT.709
Matrix coefficients                      : BT.709

Audio #1
ID                                       : 2
Format                                   : MPEG Audio
Format version                           : Version 1
Format profile                           : Layer 3
Format settings                          : Joint stereo / MS Stereo
Codec ID                                 : A_MPEG/L3
Codec ID/Hint                            : MP3
Duration                                 : 1 h 50 min
Bit rate mode                            : Constant
Bit rate                                 : 96.0 kb/s
Channel(s)                               : 2 channels
Sampling rate                            : 48.0 kHz
Frame rate                               : 41.667 FPS (1152 SPF)
Compression mode                         : Lossy
Stream size                              : 75.6 MiB (9%)
Title                                    : SSRmovies.ORG
Writing library                          : LAME3.99r
Encoding settings                        : -m j -V 4 -q 3 -lowpass 15.1 -b 96
Language                                 : Hindi
Default                                  : Yes
Forced                                   : Yes

Audio #2
ID                                       : 3
Format                                   : AAC
Format/Info                              : Advanced Audio Codec
Format profile                           : LC
Codec ID                                 : A_AAC-2
Duration                                 : 1 h 50 min
Bit rate                                 : 93.8 kb/s
Channel(s)                               : 2 channels
Channel positions                        : Front: L R
Sampling rate                            : 48.0 kHz
Frame rate                               : 46.875 FPS (1024 SPF)
Compression mode                         : Lossy
Stream size                              : 73.9 MiB (8%)
Title                                    : SSRmovies.ORG
Language                                 : English
Default                                  : No
Forced                                   : No


Screenshots:

 
Category:Movies > 720P Bluray
Lang:Hindi
Total Size:884.58 MB
Info Hash:d242e7a28a4df1ed14e2af2eb6be021989a428f7
Added By:KatMaster
Date Added:11-06-2018 13:18:13
Downloads:158

Download Torrent

Ratings:Not Yet Rated (Log in to rate it)


Tracker:
udp://tracker.coppersurfer.tk:6969/announce


File List: 


Comments

No comments still posted

Powered by 10 Hamsters v2-svn -|- Page Generated In 0.291202 secs.
-|- RSS Feed -|- Feed Info
Theme By: Nikkbu