Login
Username:
Password:
[Signup]
[Recover Account]


Browse Torrents

Poll


You must be logged in to view polls



Latest Torrents
Taxing.Love.2018.B...
- [Size: 521.34 MB]

RACE 3 (2018) Hind...
- [Size: 714.05 MB]

Rampage 2018 x264 ...
- [Size: 589.59 MB]

Race 3 (2018) ORG ...
- [Size: 940.19 MB]

Rampage 2018 720p ...
- [Size: 1.23 GB]


Torrent Details For "The 40 Year Old Virgin (2005) Unrated BluRay 1080p 10bit x265 HEVC Dual Audio Org DD 5.1 [Hindi..."

The 40 Year Old Virgin (2005) Unrated BluRay 1080p 10bit x265 HEVC Dual Audio Org DD 5.1 [Hindi...

Download this torrent | Magnet Download
Health:
Seeds: 77
Leechers: 281
Completed: 210 
Last Checked: 12-06-2018 13:25:03
External Torrent
Update Stats


Watch-Free-HD     Download

Poster


iMDB
Imdb Picture Original Title: The 40 Year Old Virgin
Title: The 40-Year-Old Virgin
Year: 2005
Runtime: 116 minutes
Votes: 345742
Rating: 7.1/10
Language: English, Spanish, Japanese
Country: USA
All Genres: Comedy, Romance
Plot Outline: Andy at the age of 40 still hasn't had sex. He lets his secret slip at a poker game with his buds from work. After the revealing all his friends are on a mission to help get him laid. Along the way Andy meets a nice mom, Trish, and they fall head over heels for each other. Written by Kris Hopson


Tagline: A Comedy about the moments that touch us in ways we've never been touched before.
Director: Judd Apatow
Writing By: Judd Apatow,Steve Carell,
Produced By: Judd Apatow,Steve Carell,Andrew Jay Cohen,Jon Poll,Shauna Robertson,Seth Rogen,Clayton Townsend,
Music: Lyle Workman
Cast:
Steve Carell as Andy
Catherine Keener as Trish
Paul Rudd as David
Romany Malco as Jay
Seth Rogen as Cal
Elizabeth Banks as Beth
Leslie Mann as Nicky
Jane Lynch as Paula
Gerry Bednob as Mooj
Shelley Malil as Haziz
Trailers:
The 40 Year-Old Virgin
The 40 Year-Old Virgin
The 40 Year-Old Virgin


Watch-Free-HD     Download

Details
Name:The 40 Year Old Virgin (2005) Unrated BluRay 1080p 10bit x265 HEVC Dual Audio Org DD 5.1 [Hindi...
Description:
The 40 Year Old Virgin (2005) Unrated BluRay 1080p 10bit x265 HEVC Dual Audio Org DD 5.1 [Hindi(384kbps)-English] ESubs Jitu KartiKing Movies.DigitalMaza.Org 2.5GB

 
 


INFO :-

Best Available Hindi Audio :)

For Direct Download Links ~ Visit :-  Movies.DigitalMaza.Org

For Movies Tv Shows News Updates, Trailers & Reviews ~
Join Filmy Thugs :-
 facebook.com/groups/filmythugs
 facebook.com/filmythugs1
 instagram.com/filmythugs
 t.me/FilmyThugs


Mediainfo :-

Format                                   : Matroska
Format version                           : Version 4 / Version 2
File size                                : 2.49 GiB
Duration                                 : 2 h 12 min
Overall bit rate                         : 2 693 kb/s
Movie name                               : The 40 Year Old Virgin (2005) Unrated Bluray 1080p 10bit x265 HEVC [Org DD 5.1 Hindi + English] ESubs ~ Jitu
Encoded date                             : UTC 2018-06-11 07:45:42
Writing application                      : mkvmerge v23.0.0 ('The Bride Said No') 64-bit
Writing library                          : libebml v1.3.6 + libmatroska v1.4.9

Video
ID                                       : 1
Format                                   : HEVC
Format/Info                              : High Efficiency Video Coding
Format profile                           : Main [email protected]@Main
Codec ID                                 : V_MPEGH/ISO/HEVC
Duration                                 : 2 h 12 min
Bit rate                                 : 2 097 kb/s
Width                                    : 1 920 pixels
Height                                   : 1 040 pixels
Display aspect ratio                     : 1.85:1
Frame rate mode                          : Constant
Frame rate                               : 23.976 (24000/1001) FPS
Color space                              : YUV
Chroma subsampling                       : 4:2:0
Bit depth                                : 10 bits
Bits/(Pixel*Frame)                       : 0.044
Stream size                              : 1.94 GiB (78%)
Writing library                          : x265 1.9+7-dc62b47dd0d9:[Windows][MSVC 1900][64 bit] 10bit
Encoding settings                        : wpp / ctu=64 / min-cu-size=8 / max-tu-size=32 / tu-intra-depth=1 / tu-inter-depth=1 / me=1 / subme=2 / merange=57 / no-rect / no-amp / max-merge=2 / temporal-mvp / no-early-skip / rdpenalty=0 / no-tskip / no-tskip-fast / strong-intra-smoothing / no-lossless / no-cu-lossless / no-constrained-intra / no-fast-intra / open-gop / no-temporal-layers / interlace=0 / keyint=250 / min-keyint=23 / scenecut=40 / rc-lookahead=20 / lookahead-slices=6 / bframes=4 / bframe-bias=0 / b-adapt=2 / ref=3 / limit-refs=3 / no-limit-modes / weightp / no-weightb / aq-mode=1 / qg-size=32 / aq-strength=1.00 / cbqpoffs=0 / crqpoffs=0 / rd=3 / psy-rd=2.00 / rdoq-level=0 / psy-rdoq=0.00 / no-rd-refine / signhide / deblock=-2:-2 / sao / no-sao-non-deblock / b-pyramid / cutree / no-intra-refresh / rc=crf / crf=23.4 / qcomp=0.60 / qpmin=0 / qpmax=51 / qpstep=4 / ipratio=1.40 / pbratio=1.30
Language                                 : English
Default                                  : Yes
Forced                                   : No

Audio #1
ID                                       : 2
Format                                   : AC-3
Format/Info                              : Audio Coding 3
Codec ID                                 : A_AC3
Duration                                 : 2 h 12 min
Bit rate mode                            : Constant
Bit rate                                 : 384 kb/s
Channel(s)                               : 6 channels
Channel positions                        : Front: L C R, Side: L R, LFE
Sampling rate                            : 48.0 kHz
Frame rate                               : 31.250 FPS (1536 SPF)
Bit depth                                : 16 bits
Compression mode                         : Lossy
Delay relative to video                  : 1 s 0 ms
Stream size                              : 364 MiB (14%)
Title                                    : Org DD 5.1 384Kbps
Language                                 : Hindi
Service kind                             : Complete Main
Default                                  : Yes
Forced                                   : Yes

Audio #2
ID                                       : 3
Format                                   : AAC
Format/Info                              : Advanced Audio Codec
Format profile                           : HE-AAC / LC
Format settings                          : Explicit
Codec ID                                 : A_AAC-2
Duration                                 : 2 h 12 min
Bit rate                                 : 192 kb/s
Channel(s)                               : 6 channels
Channel positions                        : Front: L C R, Side: L R, LFE
Sampling rate                            : 48.0 kHz / 24.0 kHz
Frame rate                               : 23.438 FPS (1024 SPF)
Compression mode                         : Lossy
Delay relative to video                  : 34 ms
Stream size                              : 182 MiB (7%)
Language                                 : English
Default                                  : No
Forced                                   : No

Text
ID                                       : 4
Format                                   : PGS
Muxing mode                              : zlib
Codec ID                                 : S_HDMV/PGS
Codec ID/Info                            : Picture based subtitle format used on BDs/HD-DVDs
Duration                                 : 2 h 10 min
Bit rate                                 : 62.5 kb/s
Count of elements                        : 5451
Stream size                              : 58.1 MiB (2%)
Language                                 : English
Default                                  : Yes
Forced                                   : Yes

Menu
00:00:00.000                             : en:Chapter 1
00:08:43.147                             : en:Chapter 2
00:14:32.955                             : en:Chapter 3
00:22:52.704                             : en:Chapter 4
00:32:07.842                             : en:Chapter 5
00:38:17.128                             : en:Chapter 6
00:43:57.176                             : en:Chapter 7
00:48:40.584                             : en:Chapter 8
00:54:44.447                             : en:Chapter 9
01:05:00.062                             : en:Chapter 10
01:10:44.198                             : en:Chapter 11
01:17:18.592                             : en:Chapter 12
01:21:27.173                             : en:Chapter 13
01:27:54.644                             : en:Chapter 14
01:35:01.862                             : en:Chapter 15
01:41:56.735                             : en:Chapter 16
01:48:05.687                             : en:Chapter 17
01:58:59.173                             : en:Chapter 18
02:03:46.877                             : en:Chapter 19
02:08:55.102                             : en:Chapter 20


SCREENSHOTS :-

 
 
 
 


KartiKing
For Movies Tv Shows News Updates, Trailers & Reviews ~
Join Filmy Thugs :-
FB Group ~
 facebook.com/groups/filmythugs
FB Page ~
 facebook.com/filmythugs1
Instagram ~
 instagram.com/filmythugs
Telegram ~
 t.me/FilmyThugs

 

 


Category:Movies > Hollywood Dub
Lang:Hindi
Total Size:2.51 GB
Info Hash:ee9305a3a9c492921a57e9859f5590b4b56045b6
Added By:KartiKing
Date Added:11-06-2018 18:19:00
Downloads:210

Download Torrent

Ratings:Not Yet Rated (Log in to rate it)


Tracker:
udp://tracker.coppersurfer.tk:6969/announce


File List: 


Comments

No comments still posted

Powered by 10 Hamsters v2-svn -|- Page Generated In 8.129337 secs.
-|- RSS Feed -|- Feed Info
Theme By: Nikkbu