Login
Username:
Password:
[Signup]
[Recover Account]


Browse Torrents

Poll


You must be logged in to view polls



Latest Torrents
Taxing.Love.2018.B...
- [Size: 521.34 MB]

RACE 3 (2018) Hind...
- [Size: 714.05 MB]

Rampage 2018 x264 ...
- [Size: 589.59 MB]

Race 3 (2018) ORG ...
- [Size: 940.19 MB]

Rampage 2018 720p ...
- [Size: 1.23 GB]


Torrent Details For "Dumb And Dumber To 2014 x264 720p Esub BluRay Dual Audio English Hindi GOPISAHI"

Dumb And Dumber To 2014 x264 720p Esub BluRay Dual Audio English Hindi GOPISAHI

Download this torrent | Magnet Download
Health:
Seeds: 180
Leechers: 332
Completed: 182 
Last Checked: 12-06-2018 12:08:43
External Torrent
Update Stats


Watch-Free-HD     Download

Poster
No poster


Watch-Free-HD     Download

Details
Name:Dumb And Dumber To 2014 x264 720p Esub BluRay Dual Audio English Hindi GOPISAHI
Description:
 http://www.gopisahi.pw/

Format                         : Matroska

Format version                 : Version 4 / Version 2

File size                      : 765 MiB

Duration                       : 1 h 49 min

Overall bit rate               : 976 kb/s

Movie name                     : Dumb And Dumber To 2014 GOPISAHI


Video

Format                         : AVC

Codec ID                       : V_MPEG4/ISO/AVC

Duration                       : 1 h 49 min

Bit rate                       : 800 kb/s

Width                          : 1 280 pixels

Height                         : 688 pixels

Display aspect ratio           : 1.85:1

Frame rate mode                : Constant

Frame rate                     : 23.976 (24000/1001) FPS

Color space                    : YUV

Chroma subsampling             : 4:2:0

Bit depth                      : 8 bits

Scan type                      : Progressive

Bits/(Pixel*Frame)             : 0.038

Stream size                    : 626 MiB (82%)

Title                          : GOPISAHI

Writing library                : x264 core 155 r2893 b00bcaf


Audio #1

Format                         : AAC

Duration                       : 1 h 49 min

Bit rate                       : 85.7 kb/s

Channel(s)                     : 6 channels

Channel positions              : Front: L C R, Side: L R, LFE

Sampling rate                  : 44.1 kHz

Frame rate                     : 43.066 FPS (1024 SPF)

Compression mode               : Lossy

Stream size                    : 67.2 MiB (9%)

Title                          : GOPISAHI

Language                       : English


Audio #2

Format                         : AAC

Duration                       : 1 h 49 min

Bit rate                       : 87.8 kb/s

Channel(s)                     : 6 channels

Channel positions              : Front: L C R, Side: L R, LFE

Sampling rate                  : 44.1 kHz

Frame rate                     : 43.066 FPS (1024 SPF)

Compression mode               : Lossy

Stream size                    : 68.8 MiB (9%)

Title                          : GOPISAHI

Language                       : Hindi


Text

Language                       : English


Category:Movies > Hollywood Dub
Lang:Hindi
Total Size:764.76 MB
Info Hash:7642442d42ef2137a81921a8ce21911fa4b82835
Added By:gopisahi
Date Added:12-06-2018 06:54:24
Downloads:216

Download Torrent

Ratings:Not Yet Rated (Log in to rate it)


Tracker:
udp://9.rarbg.com:2740/announce


File List: 


Comments

No comments still posted

Powered by 10 Hamsters v2-svn -|- Page Generated In 0.506194 secs.
-|- RSS Feed -|- Feed Info
Theme By: Nikkbu