Login
Username:
Password:
[Signup]
[Recover Account]


Browse Torrents

Poll


You must be logged in to view polls



Latest Torrents
Taxing.Love.2018.B...
- [Size: 521.34 MB]

RACE 3 (2018) Hind...
- [Size: 714.05 MB]

Rampage 2018 x264 ...
- [Size: 589.59 MB]

Race 3 (2018) ORG ...
- [Size: 940.19 MB]

Rampage 2018 720p ...
- [Size: 1.23 GB]


Torrent Details For "Star Wars - Episode VII - The Force Awakens(2015) Movie 720p Netflix WebHD 5.1 DD+ Audio(Hindi..."

Star Wars - Episode VII - The Force Awakens(2015) Movie 720p Netflix WebHD 5.1 DD+ Audio(Hindi...

Download this torrent | Magnet Download
Health:
Seeds: 6
Leechers: 0
Completed:
Last Checked: 13-06-2018 02:11:55
External Torrent
Update Stats


Watch-Free-HD     Download

Poster


iMDB
Imdb Picture Original Title: Star Wars: Episode VII - The Force Awakens
Title: Star Wars: The Force Awakens
Year: 2015
Runtime: 136 minutes
Votes: 662905
Rating: 8.1/10
Language: English
Country: USA
All Genres: Action, Adventure, Fantasy, Sci-Fi
Plot Outline: Three decades after the defeat of the Galactic Empire, a new threat arises. The First Order attempts to rule the galaxy and only a ragtag group of heroes can stop them, along with the help of the Resistance.
Tagline: A long time ago in a galaxy far, far away...
Director: J.J. Abrams
Writing By: Lawrence Kasdan,J.J. Abrams,Michael Arndt,George Lucas,
Produced By: J.J. Abrams,Pippa Anderson,Michael Arndt,Bryan Burk,Leifur B. Dagfinnsson,Tommy Gormley,Tommy Harper,Kathleen Kennedy,Jason D. McGatlin,Michelle Rejwan,Ben Rosenblatt,John Swartz,Susan Towner,Lawrence Kasdan,
Music: John Williams
Plot:

30 years after the defeat of Darth Vader and the Empire, Rey, a scavenger from the planet Jakku, finds a BB-8 droid that knows the whereabouts of the long lost Luke Skywalker. Rey, as well as a rogue stormtrooper and two smugglers, are thrown into the middle of a battle between the Resistance and the daunting legions of the First Order.

- Written by Noah White

A scavenger (Daisy Ridley) and a renegade stormtrooper (John Boyega) enlist the help of legendary smugglers/freedom fighters Han Solo (Harrison Ford) and Chewbacca to transport a droid carrying information regarding the whereabouts of long lost Jedi Master Luke Skywalker to General Leia Organa of the Resistance before it falls into the hands of Kylo Ren and the First Order.

When critical information is placed into a simple droid, both the evil First Order and the heroic Resistance go searching for it. Then something neither of them planned for happens: Rey, a scavenger from the planet Jakku finds the droid and keeps it as her own. Finn, an ex-stormtrooper who hopes to leave his past behind him, crosses paths with her and breaks the news of what exactly the importance of the droid is. Next thing either of them know is that they are on the run in order to withhold the droid from the First Order. They meet a pair of old buddies and after a few skirmishes between them and the determined First Order, the droid is brought to the Resistance base. There, multiple plans are hatched against the First Order while the secret information on the droid is slowly and surely working itself out...

30 years ago the Empire was defeated and now a new threat, the First Order has risen from the ashes of the Empire. A scavenger called Rey has come into contact with a droid that contains a map to the legendary Luke Skywalker, who has vanished. Rey and a rogue stormtrooper called Finn find themselves in a monumental conflict between good and evil, that will see faces old and new.

Thirty years after the Galactic Empire vanquished, a new threat rises. The First Order attempt to rule the Galaxy and only a small bunch of heroes have the ability to stop them. Meanwhile, a female scavenger named Rey teams up with a rogue stormtroopter to return a droid to the resistance base containing a map to a legendary Jedi Master.

Three decades after the defeat of the Galactic Empire, a new threat arises. The First Order attempts to rule the galaxy and only a ragtag group of heroes can stop them, along with the help of the Resistance.

- Written by Brian McInnis
Cast:
Harrison Ford as Han Solo
Mark Hamill as Luke Skywalker
Carrie Fisher as Princess Leia
Adam Driver as Kylo Ren
Daisy Ridley as Rey
John Boyega as Finn
Oscar Isaac as Poe Dameron
Lupita Nyong'o as Maz Kanata
Andy Serkis as Supreme Leader Snoke
Domhnall Gleeson as General Hux
Trailers:
Watch With a STARZ Free Trial
Deleted Scenes Teaser
Home Entertainment Trailer
Theatrical Trailer
Teaser #2
Teaser Trailer
Star Wars: The Force Awakens


Watch-Free-HD     Download

Details
Name:Star Wars - Episode VII - The Force Awakens(2015) Movie 720p Netflix WebHD 5.1 DD+ Audio(Hindi...
Description:




General
Complete name                            : Star Wars - Episode VII - The Force Awakens(2015) Movie 720p  Netflix WebHD 5.1 DD+ Audio(Hindi)-HDprintMovies.mp4
Format                                   : dash
Codec ID                                 : dash (iso6/mp41)
File size                                : 1.43 GiB
Duration                                 : 2 h 18 min
Overall bit rate                         : 1 472 kb/s
Encoded date                             : UTC 2018-06-10 15:35:05
Tagged date                              : UTC 2018-06-10 15:35:05

Video
ID                                       : 2
Format                                   : AVC
Format/Info                              : Advanced Video Codec
Format profile                           : [email protected]
Format settings                          : 1 Ref Frames
Format settings, CABAC                   : No
Format settings, RefFrames               : 1 frame
Format settings, GOP                     : M=1, N=24
Codec ID                                 : avc1
Codec ID/Info                            : Advanced Video Coding
Duration                                 : 2 h 18 min
Bit rate                                 : 1 282 kb/s
Width                                    : 720 pixels
Height                                   : 480 pixels
Display aspect ratio                     : 16:9
Original display aspect ratio            : 16:9
Frame rate mode                          : Constant
Frame rate                               : 23.976 (23976/1000) FPS
Color space                              : YUV
Chroma subsampling                       : 4:2:0
Bit depth                                : 8 bits
Scan type                                : Progressive
Bits/(Pixel*Frame)                       : 0.155
Stream size                              : 1.24 GiB (87%)
Encoded date                             : UTC 2018-06-10 15:35:05
Tagged date                              : UTC 2018-06-10 15:35:05

Audio
ID                                       : 1
Format                                   : E-AC-3
Format/Info                              : Enhanced Audio Coding 3
Codec ID                                 : ec-3
Duration                                 : 2 h 18 min
Bit rate mode                            : Constant
Bit rate                                 : 192 kb/s
Channel(s)                               : 6 channels
Channel positions                        : Front: L C R, Side: L R, LFE
Sampling rate                            : 48.0 kHz
Frame rate                               : 187.500 FPS (256 SPF)
Bit depth                                : 16 bits
Compression mode                         : Lossy
Stream size                              : 191 MiB (13%)
Service kind                             : Complete Main
Encoded date                             : UTC 2018-06-10 15:35:05
Tagged date                              : UTC 2018-06-10 15:35:05



SAMPLE LINK














Category:Movies > Hollywood Dub
Lang:Hindi
Total Size:1.43 GB
Info Hash:9d19ce0a0d86a00c6394f13d54cedea7b67b7777
Added By:suman142
Date Added:12-06-2018 08:57:23
Downloads:127

Download Torrent

Ratings:Not Yet Rated (Log in to rate it)


Tracker:
udp://tracker.coppersurfer.tk:6969/announce


File List: 


Comments

No comments still posted

Powered by 10 Hamsters v2-svn -|- Page Generated In 5.025529 secs.
-|- RSS Feed -|- Feed Info
Theme By: Nikkbu