Login
Username:
Password:
[Signup]
[Recover Account]


Browse Torrents

Poll


You must be logged in to view polls



Latest Torrents
Taxing.Love.2018.B...
- [Size: 521.34 MB]

RACE 3 (2018) Hind...
- [Size: 714.05 MB]

Rampage 2018 x264 ...
- [Size: 589.59 MB]

Race 3 (2018) ORG ...
- [Size: 940.19 MB]

Rampage 2018 720p ...
- [Size: 1.23 GB]


Torrent Details For "RUM 2017 x264 720p HD 5.1 Hindi Tamil GOPISAHI"

RUM 2017 x264 720p HD 5.1 Hindi Tamil GOPISAHI

Download this torrent | Magnet Download
Health:
Seeds: 20
Leechers: 479
Completed: 29 
Last Checked: 12-06-2018 12:05:51
External Torrent
Update Stats


Watch-Free-HD     Download

Poster
No poster


Watch-Free-HD     Download

Details
Name:RUM 2017 x264 720p HD 5.1 Hindi Tamil GOPISAHI
Description:
 http://www.gopisahi.pw/

Format                         : Matroska
Format version                 : Version 4 / Version 2
File size                      : 723 MiB
Duration                       : 2 h 10 min
Overall bit rate               : 776 kb/s
Movie name                     : RUM 2017 GOPISAHI

Video
Format                         : AVC
Codec ID                       : V_MPEG4/ISO/AVC
Duration                       : 2 h 10 min
Bit rate                       : 600 kb/s
Width                          : 1 280 pixels
Height                         : 536 pixels
Display aspect ratio           : 2.40:1
Frame rate mode                : Constant
Frame rate                     : 24.000 FPS
Color space                    : YUV
Chroma subsampling             : 4:2:0
Bit depth                      : 8 bits
Scan type                      : Progressive
Bits/(Pixel*Frame)             : 0.036
Stream size                    : 559 MiB (77%)
Title                          : GOPISAHI
Writing library                : x264 core 155 r2893 b00bcaf

Audio #1
Format                         : AAC
Duration                       : 2 h 10 min
Bit rate                       : 86.9 kb/s
Channel(s)                     : 6 channels
Channel positions              : Front: L C R, Side: L R, LFE
Sampling rate                  : 44.1 kHz
Frame rate                     : 43.066 FPS (1024 SPF)
Compression mode               : Lossy
Stream size                    : 80.9 MiB (11%)
Title                          : GOPISAHI
Language                       : Hindi

Audio #2
Format                         : AAC
Duration                       : 2 h 10 min
Bit rate                       : 86.5 kb/s
Channel(s)                     : 6 channels
Channel positions              : Front: L C R, Side: L R, LFE
Sampling rate                  : 44.1 kHz
Frame rate                     : 43.066 FPS (1024 SPF)
Compression mode               : Lossy
Stream size                    : 80.5 MiB (11%)
Title                          : GOPISAHI
Language                       : Tamil


Category:Movies > Hollywood Dub
Lang:English  English
Total Size:722.83 MB
Info Hash:7382f104b5e5a916f7003fffb2553dc332b469ae
Added By:gopisahi
Date Added:12-06-2018 10:23:16
Downloads:279

Download Torrent

Ratings:Not Yet Rated (Log in to rate it)


Tracker:
udp://9.rarbg.com:2740/announce


File List: 


Comments

No comments still posted

Powered by 10 Hamsters v2-svn -|- Page Generated In 0.381847 secs.
-|- RSS Feed -|- Feed Info
Theme By: Nikkbu