Login
Username:
Password:
[Signup]
[Recover Account]


Browse Torrents

Poll


You must be logged in to view polls



Latest Torrents
RACE 3 (2018) Hind...
- [Size: 714.05 MB]

Rampage 2018 x264 ...
- [Size: 589.59 MB]

Race 3 (2018) ORG ...
- [Size: 940.19 MB]

Rampage 2018 720p ...
- [Size: 1.23 GB]

Rampage.2018.HDRip...
- [Size: 1.31 GB]


Torrent Details For "Contract To Kill 2016 720p BluRay x264.English 2.0"

Contract To Kill 2016 720p BluRay x264.English 2.0

Download this torrent | Magnet Download
Health:
Seeds: 1
Leechers: 1
Completed:
Last Checked: 12-06-2018 13:24:01
External Torrent
Update Stats


Watch-Free-HD     Download

Poster
No poster


iMDB
Imdb Picture Title: Contract to Kill
Year: 2018
Runtime: 90 minutes
Votes: 1005
Rating: 3.5/10
Language: English
Country: Romania
All Genres: Action, Adventure
Plot Outline: Harmon is a CIA/DEA enforcer investigating terrorists captured in Mexico. With his team--seductive FBI agent Zara and spy-drone pilot Sharp--he flies to Istanbul and uncovers a brutal plot: extremists plan to use Sonora drug-smuggling routes to bring deadly weapons, and leaders, into the U.S. To prevent an attack on America, Harmon must turn these two savage forces against one another before his time--and his luck--run out.then the fool now became the fool.


Tagline: War has no borders.
Director: Keoni Waxman
Writing By: Keoni Waxman,
Produced By: Cristian Bostanescu,Binh Dang,Phillip B. Goldfine,Pierre-Andre Rochat,Steven Seagal,Keoni Waxman,
Music: Michael Richard Plowman
Cast:
Steven Seagal as John Harmon
Russell Wong as Matthew Sharp
Jemma Dallender as Zara Hayek
Mircea Drambareanu as Jose Rivera
Sergiu Costache as Ayan Al-Mujahid
Ghassan Bouz as Abdul Rauf
Camillo Aviles as Sicario #1
Toma Danila as Sicario #2
Andrei Stanciu as Matt Beck
Salex Iatma as OTM #1 / Abdulah Al-Hamdani
Trailers:
Trailer #1


Watch-Free-HD     Download

Details
Name:Contract To Kill 2016 720p BluRay x264.English 2.0
Description:
******************************Thumbnail:**********************

 

******************************Screenshots:********************

 Screenshot 1

 Screenshot 2

 Screenshot 3

 Screenshot 4

 Screenshot 5

 Screenshot 6

 Screenshot 7

 Screenshot 8

 Screenshot 9

 Screenshot 0

**************************************************************

Complete name                            : Contract.To.Kill.2016.720p.BluRay.x264.English 2.0.LLG.mp4
Format                                   : MPEG-4
Format profile                           : Base Media
Codec ID                                 : isom (isom/iso2/avc1/mp41)
File size                                : 619 MiB
Duration                                 : 1 h 30 min
Overall bit rate                         : 960 kb/s
Writing application                      : Lavf57.56.101

Video
ID                                       : 1
Format                                   : AVC
Format/Info                              : Advanced Video Codec
Format profile                           : [email protected]
Format settings                          : CABAC / 4 Ref Frames
Format settings, CABAC                   : Yes
Format settings, RefFrames               : 4 frames
Codec ID                                 : avc1
Codec ID/Info                            : Advanced Video Coding
Duration                                 : 1 h 30 min
Bit rate                                 : 900 kb/s
Width                                    : 1 280 pixels
Height                                   : 536 pixels
Display aspect ratio                     : 2.40:1
Frame rate mode                          : Constant
Frame rate                               : 23.976 (23976/1000) FPS
Color space                              : YUV
Chroma subsampling                       : 4:2:0
Bit depth                                : 8 bits
Scan type                                : Progressive
Bits/(Pixel*Frame)                       : 0.055
Stream size                              : 573 MiB (93%)

Audio
ID                                       : 2
Format                                   : AAC
Format/Info                              : Advanced Audio Codec
Format profile                           : LC
Codec ID                                 : mp4a-40-2
Duration                                 : 1 h 30 min
Bit rate mode                            : Constant
Bit rate                                 : 64.8 kb/s
Channel(s)                               : 2 channels
Channel positions                        : Front: L R
Sampling rate                            : 48.0 kHz
Frame rate                               : 46.875 FPS (1024 SPF)
Compression mode                         : Lossy
Stream size                              : 41.8 MiB (7%)
Language                                 : English
Default                                  : Yes
Alternate group                          : 1

Category:Movies > 720P Bluray
Lang:English  English
Total Size:629.88 MB
Info Hash:c7fc1fe4c3f0f78d15efd35ddfc8d6630f498c19
Added By:LifeLongg
Date Added:12-06-2018 13:14:45
Downloads:42

Download Torrent

Ratings:Not Yet Rated (Log in to rate it)


Tracker:
udp://tracker.openbittorrent.com:80/announce


File List: 


Comments

No comments still posted

Powered by 10 Hamsters v2-svn -|- Page Generated In 0.202547 secs.
-|- RSS Feed -|- Feed Info
Theme By: Nikkbu