Login
Username:
Password:
[Signup]
[Recover Account]


Browse Torrents

Poll


You must be logged in to view polls



Latest Torrents
Alone.S05E02.720p....
- [Size: 779.15 MB]

James.Corden.2018....
- [Size: 643.70 MB]

Alone.S05E02.WEB.h...
- [Size: 572.93 MB]

Cooking.on.High.S0...
- [Size: 113.72 MB]

Cooking.on.High.S0...
- [Size: 114.38 MB]


Torrent Details For "Baaghi 2(2018) Movie 1080p WebHD AAC Audio-HDprintMovies"

Baaghi 2(2018) Movie 1080p WebHD AAC Audio-HDprintMovies

Download this torrent | Magnet Download
Health:
Seeds: 6
Leechers: 17
Completed:
Last Checked: 14-06-2018 08:30:11
External Torrent
Update Stats


Watch-Free-HD     Download

Poster


iMDB
Imdb Picture Title: Baaghi 2
Year: 2018
Language: Hindi
Country: India
All Genres: Action
Plot Outline: Ronny, is hired by ex-lover Neha, to track down her daughter Riya, who has been kidnapped.
Director: Ahmed Khan
Writing By: Hussain Dalal,Abbas Hirapurwala,Jojo Khan,Niraj Kumar Mishra,Sajid Nadiadwala,
Produced By: Bharat Bohra,Dipti Jindal,Rakesh Madhotra,Sajid Nadiadwala,Vikram Raazdan,Vijay Singh,
Music: Mithoon Julius Packiam
Cast:
Disha Patani as Neha
Tiger Shroff as Ronny
Randeep Hooda as
Manoj Bajpayee as
Lakshmi Manchu as
Prateik as
Shifuji Shaurya Bharadwaj as
Paras Arora as
Darshan Kumar as
Indraneel Bhattacharya as
Trailers:
Baaghi 2 Trailer


Watch-Free-HD     Download

Details
Name:Baaghi 2(2018) Movie 1080p WebHD AAC Audio-HDprintMovies
Description:




General
Unique ID                                : 50455527022540700951187740368226708070 (0x25F5618B86C70EBEF71FCAE9A4236A66)
Complete name                            : Baaghi 2(2018) Movie 1080p WebHD AAC Audio-HDprintMovies.mkv
Format                                   : Matroska
Format version                           : Version 4 / Version 2
File size                                : 4.25 GiB
Duration                                 : 2 h 14 min
Overall bit rate                         : 4 521 kb/s
Encoded date                             : UTC 2018-06-12 13:42:01
Writing application                      : mkvmerge v21.0.0 ('Tardigrades Will Inherit The Earth') 64-bit
Writing library                          : libebml v1.3.5 + libmatroska v1.4.8

Video
ID                                       : 1
Format                                   : AVC
Format/Info                              : Advanced Video Codec
Format profile                           : [email protected]
Format settings                          : CABAC / 1 Ref Frames
Format settings, CABAC                   : Yes
Format settings, RefFrames               : 1 frame
Format settings, GOP                     : M=1, N=25
Codec ID                                 : V_MPEG4/ISO/AVC
Duration                                 : 2 h 14 min
Bit rate mode                            : Constant
Bit rate                                 : 4 500 kb/s
Width                                    : 1 920 pixels
Height                                   : 1 080 pixels
Display aspect ratio                     : 16:9
Frame rate mode                          : Variable
Frame rate                               : 24.844 FPS
Original frame rate                      : 25.000 FPS
Color space                              : YUV
Chroma subsampling                       : 4:2:0
Bit depth                                : 8 bits
Scan type                                : Progressive
Bits/(Pixel*Frame)                       : 0.087
Stream size                              : 4.19 GiB (99%)
Title                                    : HDprintMovies
Default                                  : Yes
Forced                                   : No

Audio
ID                                       : 2
Format                                   : AAC
Format/Info                              : Advanced Audio Codec
Format profile                           : LC
Codec ID                                 : A_AAC-2
Duration                                 : 2 h 14 min
Bit rate                                 : 61.4 kb/s
Channel(s)                               : 2 channels
Channel positions                        : Front: L R
Sampling rate                            : 48.0 kHz
Frame rate                               : 46.875 FPS (1024 SPF)
Compression mode                         : Lossy
Stream size                              : 59.1 MiB (1%)
Language                                 : Hindi
Default                                  : Yes
Forced                                   : No



SAMPLE LINK


















Category:Movies > Bollywood
Lang:Hindi
Total Size:4.25 GB
Info Hash:c87e37423278389bee11871b4732bf6377f84c67
Added By:suman142
Date Added:12-06-2018 15:17:19
Downloads:300

Download Torrent

Ratings:Not Yet Rated (Log in to rate it)


Tracker:
udp://tracker.coppersurfer.tk:6969/announce


File List: 


Comments

No comments still posted

Powered by 10 Hamsters v2-svn -|- Page Generated In 8.643731 secs.
-|- RSS Feed -|- Feed Info
Theme By: Nikkbu