Login
Username:
Password:
[Signup]
[Recover Account]


Browse Torrents

Poll


You must be logged in to view polls



Latest Torrents
Taxing.Love.2018.B...
- [Size: 521.34 MB]

RACE 3 (2018) Hind...
- [Size: 714.05 MB]

Rampage 2018 x264 ...
- [Size: 589.59 MB]

Race 3 (2018) ORG ...
- [Size: 940.19 MB]

Rampage 2018 720p ...
- [Size: 1.23 GB]


Torrent Details For "Vikram Vedha (2018 x264 720p HD 5.1 Hindi GOPISAHI"

Vikram Vedha (2018 x264 720p HD 5.1 Hindi GOPISAHI

Download this torrent | Magnet Download
Health:
Seeds: 445
Leechers: 515
Completed: 371 
Last Checked: 13-06-2018 10:47:59
External Torrent
Update Stats


Watch-Free-HD     Download

Poster
No poster


Watch-Free-HD     Download

Details
Name:Vikram Vedha (2018 x264 720p HD 5.1 Hindi GOPISAHI
Description:
 http://www.gopisahi.pw/
8o/KFkfwY3J8HwobDZeUyP2y2KtVXpIowdygCLcBGAs/s320/MV5BNjQ1YWEwMTMtNTI4MC00ZjU5LThlMDItOGU2ZDVkZGVjZTY3XkEyXkFqcGdeQXVyODIwMDI1NjM%2540._V1_QL50_.jpg" border="0" alt="" />
Format                         : Matroska
Format version                 : Version 4 / Version 2
File size                      : 642 MiB
Duration                       : 2 h 10 min
Overall bit rate               : 689 kb/s
Movie name                     : Vikram Vedha 2018 GOPISAHI

Video
Format                         : AVC
Codec ID                       : V_MPEG4/ISO/AVC
Duration                       : 2 h 10 min
Bit rate                       : 600 kb/s
Width                          : 1 280 pixels
Height                         : 544 pixels
Display aspect ratio           : 2.35:1
Frame rate mode                : Constant
Frame rate                     : 25.000 FPS
Color space                    : YUV
Chroma subsampling             : 4:2:0
Bit depth                      : 8 bits
Scan type                      : Progressive
Bits/(Pixel*Frame)             : 0.034
Stream size                    : 559 MiB (87%)
Title                          : GOPISAHI
Writing library                : x264 core 155 r2893 b00bcaf

Audio
Format                         : AAC
Duration                       : 2 h 10 min
Bit rate                       : 86.7 kb/s
Channel(s)                     : 6 channels
Channel positions              : Front: L C R, Side: L R, LFE
Sampling rate                  : 44.1 kHz
Frame rate                     : 43.066 FPS (1024 SPF)
Compression mode               : Lossy
Stream size                    : 80.8 MiB (13%)
Title                          : GOPISAHI
Language                       : Hindi


Category:Movies > Hollywood Dub
Lang:Hindi
Total Size:641.73 MB
Info Hash:c8c8d3c939b6609fd224fc521d9d599715fbf115
Added By:gopisahi
Date Added:13-06-2018 05:39:45
Downloads:231

Download Torrent

Ratings:Not Yet Rated (Log in to rate it)


Tracker:
udp://9.rarbg.com:2740/announce


File List: 


Comments

No comments still posted

Powered by 10 Hamsters v2-svn -|- Page Generated In 0.410927 secs.
-|- RSS Feed -|- Feed Info
Theme By: Nikkbu