Login
Username:
Password:
[Signup]
[Recover Account]


Browse Torrents

Poll


You must be logged in to view polls



Latest Torrents
Alone.S05E02.720p....
- [Size: 779.15 MB]

James.Corden.2018....
- [Size: 643.70 MB]

Alone.S05E02.WEB.h...
- [Size: 572.93 MB]

Cooking.on.High.S0...
- [Size: 113.72 MB]

Cooking.on.High.S0...
- [Size: 114.38 MB]


Torrent Details For "Mukkabaaz (2018) Hindi DVDRip x264 AAC MSubs 700MB[MovCr]"

Mukkabaaz (2018) Hindi DVDRip x264 AAC MSubs 700MB[MovCr]

Download this torrent | Magnet Download
Health:
Seeds: 195
Leechers: 166
Completed: 90 
Last Checked: 13-06-2018 10:47:02
External Torrent
Update Stats


Watch-Free-HD     Download

Poster


iMDB
Imdb Picture Original Title: Mukkabaaz
Title: The Brawler
Year: 2017
Runtime: 154 minutes
Votes: 1097
Rating: 8.5/10
Language: Hindi
Country: India
All Genres: Action, Drama, Sport
Plot Outline: A lower caste boxer struggles to make his mark on the boxing world.
Director: Anurag Kashyap
Writing By: Ranjan Chandel,Anurag Kashyap,Prasoon Mishra,Singh Srinet Mukti,K.D. Satyam,Vineet Kumar Singh,
Produced By: Vishesh Agrawal,Anurag Kashyap,Madhu Mantena Varma,Vikramaditya Motwane,Ajay Rai,Anand L. Rai,
Music: Rachita Arora
Cast:
Vineet Kumar Singh as Shravan
Zoya Hussain as Sunaina
Ravi Kishan as Sanjay Kumar
Jimmy Shergill as Bhagwan
Rajesh Tailang as Vijay Singh
Shreedhar Dubey as Gopal Tiwari
Trailers:
Mukkabaaz Trailer


Watch-Free-HD     Download

Details
Name:Mukkabaaz (2018) Hindi DVDRip x264 AAC MSubs 700MB[MovCr]
Description:
Visit  www.movcr.com

 https://www.imdb.com/title/tt7180544/

 

General
Unique ID                   : 86454849193512345249591436756085818777 (0x410A992987552C22AA748B26977EC599)
Complete name               : www.MovCr.com - Mukkabaaz (2018) Hindi DVDRip  x264 AAC MSubs [MovCr].mkv
Format                      : Matroska
Format version              : Version 4 / Version 2
File size                   : 699 MiB
Duration                    : 2 h 35 min
Overall bit rate            : 629 kb/s
Movie name                  : www.MovCr.com
Encoded date                : UTC 2018-06-13 06:12:10
Writing application         : mkvmerge v23.0.0 ('The Bride Said No') 64-bit
Writing library             : libebml v1.3.6 + libmatroska v1.4.9

Video
ID                          : 1
Format                      : AVC
Format/Info                 : Advanced Video Codec
Format profile              : [email protected]
Format settings, CABAC      : Yes
Format settings, ReFrames   : 4 frames
Codec ID                    : V_MPEG4/ISO/AVC
Duration                    : 2 h 35 min
Bit rate                    : 592 kb/s
Width                       : 640 pixels
Height                      : 272 pixels
Display aspect ratio        : 2.35:1
Frame rate mode             : Constant
Frame rate                  : 23.976 (24000/1001) FPS
Color space                 : YUV
Chroma subsampling          : 4:2:0
Bit depth                   : 8 bits
Scan type                   : Progressive
Bits/(Pixel*Frame)          : 0.142
Stream size                 : 662 MiB (95%)
Title                       : www.MovCr.com
Writing library             : x264 core 142 r2431 ac76440
Encoding settings           : cabac=1 / ref=3 / deblock=1:0:0 / analyse=0x3:0x113 / me=hex / subme=7 / psy=1 / psy_rd=1.00:0.00 / mixed_ref=1 / me_range=16 / chroma_me=1 / trellis=1 / 8x8dct=1 / cqm=0 / deadzone=21,11 / fast_pskip=1 / chroma_qp_offset=-2 / threads=1 / lookahead_threads=1 / sliced_threads=0 / nr=0 / decimate=1 / interlaced=0 / bluray_compat=0 / constrained_intra=0 / bframes=3 / b_pyramid=2 / b_adapt=1 / b_bias=0 / direct=1 / weightb=1 / open_gop=0 / weightp=2 / keyint=240 / keyint_min=23 / scenecut=40 / intra_refresh=0 / rc_lookahead=40 / rc=abr / mbtree=1 / bitrate=592 / ratetol=1.0 / qcomp=0.60 / qpmin=0 / qpmax=69 / qpstep=4 / ip_ratio=1.40 / aq=1:1.00
Default                     : Yes
Forced                      : No

Audio
ID                          : 2
Format                      : AAC
Format/Info                 : Advanced Audio Codec
Format profile              : HE-AACv2 / HE-AAC / LC
Codec ID                    : A_AAC
Duration                    : 2 h 35 min
Bit rate                    : 31.8 kb/s
Channel(s)                  : 2 channels / 1 channel / 1 channel
Channel positions           : Front: L R / Front: C / Front: C
Sampling rate               : 48.0 kHz / 48.0 kHz / 24.0 kHz
Frame rate                  : 23.438 FPS (1024 spf)
Compression mode            : Lossy
Delay relative to video     : 11 ms
Stream size                 : 35.4 MiB (5%)
Title                       : www.MovCr.com
Language                    : Hindi
Default                     : Yes
Forced                      : No

Text #1
ID                          : 3
Format                      : UTF-8
Codec ID                    : S_TEXT/UTF8
Codec ID/Info               : UTF-8 Plain Text
Duration                    : 2 h 33 min
Bit rate                    : 59 b/s
Count of elements           : 2274
Stream size                 : 66.9 KiB (0%)
Title                       : www.MovCr.com
Language                    : English
Default                     : Yes
Forced                      : No

Text #2
ID                          : 4
Format                      : UTF-8
Codec ID                    : S_TEXT/UTF8
Codec ID/Info               : UTF-8 Plain Text
Duration                    : 2 h 26 min
Bit rate                    : 92 b/s
Count of elements           : 2008
Stream size                 : 99.8 KiB (0%)
Title                       : www.MovCr.com
Language                    : Arabic
Default                     : No
Forced                      : No



 
 
 
 
 
 
 
Category:Movies > Bollywood
Lang:Hindi
Total Size:699.38 MB
Info Hash:0f049e44eb1bc73f2154bc77dc74101ef67dcfcf
Added By:Kingmaker
Date Added:13-06-2018 07:22:25
Downloads:382

Download Torrent

Ratings:Not Yet Rated (Log in to rate it)


Tracker:
udp://tracker.openbittorrent.com:80/announce

This Torrent also has backup trackers
URLSeedersLeechersCompleted
http://share.camoe.cn:8080/announce000
http://t.nyaatracker.com:80/announce000
http://asnet.pw:2710/announce000
http://tracker.tfile.co:80/announce000
http://pt.lax.mx:80/announce000


File List: 


Comments

No comments still posted

Powered by 10 Hamsters v2-svn -|- Page Generated In 1.500092 secs.
-|- RSS Feed -|- Feed Info
Theme By: Nikkbu