Login
Username:
Password:
[Signup]
[Recover Account]


Browse Torrents

Poll


You must be logged in to view polls



Latest Torrents
Alone.S05E02.720p....
- [Size: 779.15 MB]

James.Corden.2018....
- [Size: 643.70 MB]

Alone.S05E02.WEB.h...
- [Size: 572.93 MB]

Cooking.on.High.S0...
- [Size: 113.72 MB]

Cooking.on.High.S0...
- [Size: 114.38 MB]


Torrent Details For "Acrimony 2018 1080p WEB-DL DD 5.1 x264 [MW]"

Acrimony 2018 1080p WEB-DL DD 5.1 x264 [MW]

Download this torrent | Magnet Download
Health:
Seeds: 47
Leechers: 72
Completed: 2,363 
Last Checked: 21-06-2018 13:45:41
External Torrent
Update Stats


Watch-Free-HD     Download

Poster
No poster


Watch-Free-HD     Download

Details
Name:Acrimony 2018 1080p WEB-DL DD 5.1 x264 [MW]
Description:

 


General
Format                                   : Matroska
Format version                           : Version 4 / Version 2
File size                                : 2.00 GiB
Duration                                 : 2 h 0 min
Overall bit rate                         : 2 373 kb/s

Video
ID                                       : 1
Format                                   : AVC
Format/Info                              : Advanced Video Codec
Format profile                           : [email protected]
Format settings                          : CABAC / 4 Ref Frames
Format settings, CABAC                   : Yes
Format settings, RefFrames               : 4 frames
Codec ID                                 : V_MPEG4/ISO/AVC
Duration                                 : 2 h 0 min
Bit rate                                 : 2 000 kb/s
Width                                    : 1 908 pixels
Height                                   : 792 pixels
Display aspect ratio                     : 2.40:1
Frame rate mode                          : Constant
Frame rate                               : 23.976 (24000/1001) FPS
Color space                              : YUV
Chroma subsampling                       : 4:2:0
Bit depth                                : 8 bits
Scan type                                : Progressive
Bits/(Pixel*Frame)                       : 0.055
Stream size                              : 1.67 GiB (84%)
Writing library                          : x264 core 155 r2901 7d0ff22
Default                                  : Yes
Forced                                   : No

Audio
ID                                       : 2
Format                                   : AC-3
Format/Info                              : Audio Coding 3
Codec ID                                 : A_AC3
Duration                                 : 2 h 0 min
Bit rate mode                            : Constant
Bit rate                                 : 384 kb/s
Channel(s)                               : 6 channels
Channel positions                        : Front: L C R, Side: L R, LFE
Sampling rate                            : 48.0 kHz
Frame rate                               : 31.250 FPS (1536 SPF)
Bit depth                                : 16 bits
Compression mode                         : Lossy
Stream size                              : 331 MiB (16%)
Language                                 : English
Service kind                             : Complete Main
Default                                  : Yes
Forced                                   : No

Menu
00:00:00.000                             : en:1
00:02:33.987                             : en:2
00:13:00.989                             : en:3
00:25:10.968                             : en:4
00:32:57.976                             : en:5
00:41:35.034                             : en:6
00:52:03.037                             : en:7
01:00:40.011                             : en:8
01:12:36.018                             : en:9
01:24:22.015                             : en:10
01:33:44.035                             : en:11
01:44:17.001                             : en:12
01:54:00.000                             : en:13





             


Category:Movies > HDRips
Lang:English  English
Total Size:2.00 GB
Info Hash:f1a6242bd243fcf325718eca9d81523d3e3a1641
Added By:Freaky
Date Added:13-06-2018 10:50:07
Downloads:86

Download Torrent

Ratings:Not Yet Rated (Log in to rate it)


Tracker:
udp://tracker.coppersurfer.tk:6969/announce


File List: 


Comments

No comments still posted

Powered by 10 Hamsters v2-svn -|- Page Generated In 1.142988 secs.
-|- RSS Feed -|- Feed Info
Theme By: Nikkbu