Login
Username:
Password:
[Signup]
[Recover Account]


Browse Torrents

Poll


You must be logged in to view polls



Latest Torrents
Faiths.Song.2017.H...
- [Size: 1.56 GB]

The.Watcher.in.the...
- [Size: 1.23 GB]

Dil Hi Toh Hai S01...
- [Size: 10.29 GB]

Mr. Fraud (2014) 7...
- [Size: 1.64 GB]

The.Wrong.Crush.20...
- [Size: 1.23 GB]


Torrent Details For "The November Man 2014 x264 720p Esub BluRay Dual Audio English Hindi GOPISAHI"

The November Man 2014 x264 720p Esub BluRay Dual Audio English Hindi GOPISAHI

Download this torrent | Magnet Download
Health:
Seeds: 17
Leechers: 40
Completed: 532 
Last Checked: 15-06-2018 02:48:04
External Torrent
Update Stats


Watch-Free-HD     Download

Poster
No poster


Watch-Free-HD     Download

Details
Name:The November Man 2014 x264 720p Esub BluRay Dual Audio English Hindi GOPISAHI
Description:
 http://www.gopisahi.pw/

Format                         : Matroska

Format version                 : Version 4 / Version 2

File size                      : 754 MiB

Duration                       : 1 h 48 min

Overall bit rate               : 973 kb/s

Movie name                     : The November Man 2014 GOPISAHI


Video

Format                         : AVC

Codec ID                       : V_MPEG4/ISO/AVC

Duration                       : 1 h 48 min

Bit rate                       : 800 kb/s

Width                          : 1 280 pixels

Height                         : 536 pixels

Display aspect ratio           : 2.40:1

Frame rate mode                : Constant

Frame rate                     : 23.976 (24000/1001) FPS

Color space                    : YUV

Chroma subsampling             : 4:2:0

Bit depth                      : 8 bits

Scan type                      : Progressive

Bits/(Pixel*Frame)             : 0.049

Stream size                    : 620 MiB (82%)

Title                          : GOPISAHI

Writing library                : x264 core 155 r2893 b00bcaf


Audio #1

Format                         : AAC

Duration                       : 1 h 48 min

Bit rate                       : 85.2 kb/s

Channel(s)                     : 6 channels

Channel positions              : Front: L C R, Side: L R, LFE

Sampling rate                  : 44.1 kHz

Frame rate                     : 43.066 FPS (1024 SPF)

Compression mode               : Lossy

Stream size                    : 66.0 MiB (9%)

Title                          : GOPISAHI

Language                       : English


Audio #2

Format                         : AAC

Duration                       : 1 h 42 min

Bit rate                       : 89.9 kb/s

Channel(s)                     : 6 channels

Channel positions              : Front: L C R, Side: L R, LFE

Sampling rate                  : 44.1 kHz

Frame rate                     : 43.066 FPS (1024 SPF)

Compression mode               : Lossy

Stream size                    : 66.2 MiB (9%)

Title                          : GOPISAHI

Language                       : Hindi


Text

Language                       : English
BbdjMXkOpWYumOvGK3J-wCLcBGAs/s1600/The%2BNovember%2BMan%2B2014%2Bx264%2B720p%2BEsub%2BBluRay%2BDual%2BAudio%2BEnglish%2BHindi%2BGOPISAHI.mkv_thumbs.jpg" onclick="return false;">BbdjMXkOpWYumOvGK3J-wCLcBGAs/s1600/The%2BNovember%2BMan%2B2014%2Bx264%2B720p%2BEsub%2BBluRay%2BDual%2BAudio%2BEnglish%2BHindi%2BGOPISAHI.mkv_thumbs.jpg" class="resized" style="width:65em;height:auto;" />
Category:Movies > Hollywood Dub
Lang:Hindi
Total Size:754.13 MB
Info Hash:4a63caee7fc20d5bb131825ff341ff592e719ea0
Added By:gopisahi
Date Added:13-06-2018 16:04:40
Downloads:145

Download Torrent

Ratings:Not Yet Rated (Log in to rate it)


Tracker:
udp://9.rarbg.com:2740/announce


File List: 


Comments

No comments still posted

Powered by 10 Hamsters v2-svn -|- Page Generated In 0.224208 secs.
-|- RSS Feed -|- Feed Info
Theme By: Nikkbu