Login
Username:
Password:
[Signup]
[Recover Account]


Browse Torrents

Poll


You must be logged in to view polls



Latest Torrents
Double.Lover.2017....
- [Size: 464.68 MB]

Jimmy.Fallon.2018....
- [Size: 583.23 MB]

Isle of Dogs 2018 ...
- [Size: 761.68 MB]

Face.Off.S13E03.WE...
- [Size: 608.16 MB]

48.Hours.NCIS.S02E...
- [Size: 795.27 MB]


Torrent Details For "Vikram Vedha 2018 UNCUT x264 720p HD 5.1 Esub Hindi Tamil GOPISAHI"

Vikram Vedha 2018 UNCUT x264 720p HD 5.1 Esub Hindi Tamil GOPISAHI

Download this torrent | Magnet Download
Health:
Seeds: 0
Leechers: 0
Completed:
Last Checked: 14-06-2018 09:59:29
External Torrent
Update Stats


Watch-Free-HD     Download

Poster
No poster


Watch-Free-HD     Download

Details
Name:Vikram Vedha 2018 UNCUT x264 720p HD 5.1 Esub Hindi Tamil GOPISAHI
Description:
 http://www.gopisahi.pw/

Format                         : Matroska
Format version                 : Version 4 / Version 2
File size                      : 782 MiB
Duration                       : 2 h 19 min
Overall bit rate               : 781 kb/s
Movie name                     : Vikram Vedha 2018  GOPISAHI

Video
Format                         : AVC
Codec ID                       : V_MPEG4/ISO/AVC
Duration                       : 2 h 19 min
Bit rate                       : 600 kb/s
Width                          : 1 280 pixels
Height                         : 506 pixels
Display aspect ratio           : 2.530
Frame rate mode                : Constant
Frame rate                     : 25.000 FPS
Color space                    : YUV
Chroma subsampling             : 4:2:0
Bit depth                      : 8 bits
Scan type                      : Progressive
Bits/(Pixel*Frame)             : 0.037
Stream size                    : 600 MiB (77%)
Title                          : GOPISAHI
Writing library                : x264 core 155 r2893 b00bcaf
Language                       : Hindi

Audio #1
Format                         : AAC
Duration                       : 2 h 19 min
Bit rate                       : 88.8 kb/s
Channel(s)                     : 6 channels
Channel positions              : Front: L C R, Side: L R, LFE
Sampling rate                  : 44.1 kHz
Frame rate                     : 43.066 FPS (1024 SPF)
Compression mode               : Lossy
Stream size                    : 88.8 MiB (11%)
Title                          : GOPISAHI
Language                       : Tamil

Audio #2
Format                         : AAC
Duration                       : 2 h 19 min
Bit rate                       : 89.4 kb/s
Channel(s)                     : 6 channels
Channel positions              : Front: L C R, Side: L R, LFE
Sampling rate                  : 44.1 kHz
Frame rate                     : 43.066 FPS (1024 SPF)
Compression mode               : Lossy
Stream size                    : 89.5 MiB (11%)
Title                          : GOPISAHI
Language                       : Hindi

Text
Language                       : English


Category:Movies > Hollywood Dub
Lang:Hindi
Total Size:781.60 MB
Info Hash:644eac8b5822932df0ccf79525efc42adaf5f95e
Added By:gopisahi
Date Added:14-06-2018 09:59:29
Downloads:230

Download Torrent

Ratings:Not Yet Rated (Log in to rate it)


Tracker:
udp://9.rarbg.com:2740/announce


File List: 


Comments

No comments still posted

Powered by 10 Hamsters v2-svn -|- Page Generated In 0.481405 secs.
-|- RSS Feed -|- Feed Info
Theme By: Nikkbu