Login
Username:
Password:
[Signup]
[Recover Account]


Browse Torrents

Poll


You must be logged in to view polls



Latest Torrents
Black.Ink.Crew.Chi...
- [Size: 311.00 MB]

TKO.Total.Knock.Ou...
- [Size: 595.03 MB]

Jia Aur Jia 2017 1...
- [Size: 5.07 GB]

Jurassic World Fal...
- [Size: 882.06 MB]

Goal! The Dream Be...
- [Size: 978.93 MB]


Torrent Details For "Rampage (2018) 720p Dual Audio BluRay Org DD5.1 [Hindi (448kbps) -English] ESUBS KartiKing"

Rampage (2018) 720p Dual Audio BluRay Org DD5.1 [Hindi (448kbps) -English] ESUBS KartiKing

Download this torrent | Magnet Download
Health:
Seeds: 18
Leechers: 21
Completed: 299 
Last Checked: 10-07-2018 14:53:17
External Torrent
Update Stats


Watch-Free-HD     Download

Poster


iMDB
Imdb Picture Title: Rampage
Year: 2018
Runtime: 107 minutes
Votes: 1815
Rating: 6.4/10
Language: English, Spanish
Country: USA
All Genres: Action, Adventure, Sci-Fi
Plot Outline: When three different animals become infected with a dangerous pathogen, a primatologist and a geneticist team up to stop them from destroying Chicago.
Tagline: Big Meets Bigger
Director: Brad Peyton
Writing By: Ryan Engle,Carlton Cuse,Ryan J. Condal,Adam Sztykiel,Ryan Engle,
Produced By: Richard Brener,Michael Disco,Toby Emmerich,Jeffrey Fierson,Beau Flynn,Dany Garcia,Hiram Garcia,Wendy Jacobson,Dwayne Johnson,Josh Mack,Brad Peyton,Darin Read,John Rickard,Dana Robin,Ozzie Scott,Marcus Viscidi,
Music: Andrew Lockington
Cast:
Dwayne Johnson as Davis Okoye
Naomie Harris as Dr. Kate Caldwell
Malin Akerman as Claire Wyden
Jeffrey Dean Morgan as Harvey Russell
Jake Lacy as Brett Wyden
Joe Manganiello as Burke
Marley Shelton as Dr. Kerry Atkins
P.J. Byrne as Nelson
Demetrius Grosse as Colonel Blake
Jack Quaid as Connor
Trailers:
Rampage
Trailer #2
Rampage
Trailer #1


Watch-Free-HD     Download

Details
Name:Rampage (2018) 720p Dual Audio BluRay Org DD5.1 [Hindi (448kbps) -English] ESUBS KartiKing
Description:
Rampage (2018) 720p Dual Audio BluRay Org DD5.1 [Hindi (448kbps) -English] ESUBS KartiKing Movies.DigitalMaza.Org 1.6GB

 

 

INFO :-

For Direct Download Links ~ Visit :-  Movies.DigitalMaza.Org

Mediainfo :-

BD ORG DD5.1 448kbps Hindi Audio (Mr Rajput Thanks)

 https://nfomation.net/download...Rage720KartiKing.txt

Rampage (2018) 720p Dual Audio BluRay Org DD5.1 [Hindi (448kbps) -Eng] ESUBS KartiKing.mkv
Format                                   : Matroska
Format version                           : Version 4 / Version 2
File size                                : 1.61 GiB
Duration                                 : 1 h 47 min
Overall bit rate                         : 2 148 kb/s

Video
ID                                       : 2
Format                                   : AVC
Format/Info                              : Advanced Video Codec
Format profile                           : [email protected]
Format settings                          : CABAC / 5 Ref Frames
Format settings, CABAC                   : Yes
Format settings, RefFrames               : 5 frames
Codec ID                                 : V_MPEG4/ISO/AVC
Duration                                 : 1 h 47 min
Bit rate                                 : 1 443 kb/s
Width                                    : 1 280 pixels
Height                                   : 534 pixels
Display aspect ratio                     : 2.40:1
Frame rate mode                          : Constant
Frame rate                               : 23.976 (24000/1001) FPS
Color space                              : YUV
Chroma subsampling                       : 4:2:0
Bit depth                                : 8 bits
Scan type                                : Progressive
Bits/(Pixel*Frame)                       : 0.088
Stream size                              : 1.08 GiB (67%)
Language                                 : English
Default                                  : Yes
Forced                                   : Yes

Audio #1
ID                                       : 1
Format                                   : AC-3
Format/Info                              : Audio Coding 3
Codec ID                                 : A_AC3
Duration                                 : 1 h 47 min
Bit rate mode                            : Constant
Bit rate                                 : 448 kb/s
Channel(s)                               : 6 channels
Channel positions                        : Front: L C R, Side: L R, LFE
Sampling rate                            : 48.0 kHz
Frame rate                               : 31.250 FPS (1536 SPF)
Bit depth                                : 16 bits
Compression mode                         : Lossy
Stream size                              : 344 MiB (21%)
Language                                 : Hindi
Service kind                             : Complete Main
Default                                  : Yes
Forced                                   : Yes

Audio #2
ID                                       : 3
Format                                   : AAC
Format/Info                              : Advanced Audio Codec
Format profile                           : LC
Codec ID                                 : A_AAC-2
Duration                                 : 1 h 47 min
Bit rate                                 : 254 kb/s
Channel(s)                               : 6 channels
Channel positions                        : Front: L C R, Side: L R, LFE
Sampling rate                            : 48.0 kHz
Frame rate                               : 46.875 FPS (1024 SPF)
Compression mode                         : Lossy
Delay relative to video                  : 9 ms
Stream size                              : 195 MiB (12%)
Language                                 : English
Default                                  : No
Forced                                   : Yes

Text #1
ID                                       : 4
Format                                   : UTF-8
Codec ID                                 : S_TEXT/UTF8
Codec ID/Info                            : UTF-8 Plain Text
Duration                                 : 1 h 37 min
Bit rate                                 : 55 b/s
Count of elements                        : 1257
Stream size                              : 39.8 KiB (0%)
Language                                 : English
Default                                  : No
Forced                                   : No

Menu
00:00:00.000                             : :00:00:00.000
00:12:58.528                             : :00:12:58.528
00:19:56.278                             : :00:19:56.278
00:29:53.291                             : :00:29:53.291
00:40:35.391                             : :00:40:35.391
00:49:10.906                             : :00:49:10.906
01:02:38.171                             : :01:02:38.171
01:10:37.650                             : :01:10:37.650
01:20:10.472                             : :01:20:10.472
01:29:23.608                             : :01:29:23.608
01:39:43.186                             : :01:39:43.186



SCREENSHOTS :-

 
 
 
 
 


KartiKing
 Movies.DigitalMaza.Org


 


Category:Movies > Hollywood Dub
Lang:Hindi
Total Size:1.63 GB
Info Hash:1ad1a48b04fecfafb5a68b44005a371e638370fa
Added By:KartiKing
Date Added:08-07-2018 07:34:40
Downloads:381

Download Torrent

Ratings:Not Yet Rated (Log in to rate it)


Tracker:
udp://tracker.coppersurfer.tk:6969/announce

This Torrent also has backup trackers
URLSeedersLeechersCompleted
http://retracker.telecom.by:80/announce000
http://retracker.mgts.by:80/announce000
https://1.track.ga:443/announce000


File List: 


Comments

No comments still posted

Powered by 10 Hamsters v2-svn -|- Page Generated In 2.551120 secs.
-|- RSS Feed -|- Feed Info
Theme By: Nikkbu