Login
Username:
Password:
[Signup]
[Recover Account]


Browse Torrents

Poll


You must be logged in to view polls



Latest Torrents
+18 The Howling 19...
- [Size: 643.77 MB]

Gotti.2018.BDRiP.x...
- [Size: 474.37 MB]

Jurassic World Fal...
- [Size: 1.18 GB]

Black Panther 2018...
- [Size: 3.67 GB]

MCA (Middle Class ...
- [Size: 1.57 GB]


Torrent Details For "Dracula.In.Love.2018.1080p.AMZN.WEBRip.DDP2.0.x264-NTG"

Dracula.In.Love.2018.1080p.AMZN.WEBRip.DDP2.0.x264-NTG

Download this torrent | Magnet Download
Health:
Seeds: 0
Leechers: 0
Completed:
Last Checked: 11-07-2018 15:43:34
External Torrent
Update Stats


Watch-Free-HD     Download

Poster


iMDB
Imdb Picture Title: Dracula in Love
Year: 2018
Runtime: 83 minutes
Votes: 6
Rating: 5.0/10
Language: English
Country: Canada
All Genres: Fantasy, Horror
Plot Outline: Leila, a lonely young soul spends the night partying with her friends Nancy, David and Nash in a warehouse. As the boys drink up and smoke pot all social barriers between the sexes crumble. Leila, hit on by both men, hides away from them. Alone she senses there is someone else who wants her and certainly he is not of this world. A 200 year old Dracula escapes from a crate and reveals himself to Leila and tells her that she is his lost love. For him to live again and be with her, she must bring him the blood of her friends to drink and make love to him. Hypnotized by his sexual powers, Leila does as she is told. Leila and a handsome young Dracula get away and live happily ever after. Written by FlixHouse


Director: Izidore K. Musallam
Writing By: Izidore K. Musallam,
Produced By: Kamel Ballout,Michael Bockner,Nabil G. Fahel,Shawky J. Fahel,Tony Kandah,Izidore K. Musallam,George Shalhoub,
Music: George Brasovan
Cast:
Youssef Abed-Alnour as Dracula
Amy Cruichshank as Nancy
Josh Maltin as David
Cailey Muise as Leila
Andre Luis Oliveira as Young Dracula
Alan K. Sapp as Stuart
Eyal Simko as Nash


Watch-Free-HD     Download

Details
Name:Dracula.In.Love.2018.1080p.AMZN.WEBRip.DDP2.0.x264-NTG
Description:
 
 
 

Video
ID : 1
Format : AVC
Format/Info : Advanced Video Codec
Format profile : [email protected]
Format settings : CABAC / 4 Ref Frames
Format settings, CABAC : Yes
Format settings, ReFrames : 4 frames
Codec ID : V_MPEG4/ISO/AVC
Duration : 1 h 23 min
Bit rate : 7 123 kb/s
Width : 1 920 pixels
Height : 1 080 pixels
Display aspect ratio : 16:9
Frame rate mode : Constant
Frame rate : 23.976 (24000/1001) FPS
Color space : YUV
Chroma subsampling : 4:2:0
Bit depth : 8 bits
Scan type : Progressive
Bits/(Pixel*Frame) : 0.143
Stream size : 4.14 GiB (97%)
Default : Yes
Forced : No
Color range : Limited
Color primaries : BT.709
Transfer characteristics : BT.709
Matrix coefficients : BT.709

Audio
ID : 2
Format : E-AC-3
Format/Info : Enhanced Audio Coding 3
Codec ID : A_EAC3
Duration : 1 h 23 min
Bit rate mode : Constant
Bit rate : 224 kb/s
Channel(s) : 2 channels
Channel positions : Front: L R
Sampling rate : 48.0 kHz
Frame rate : 187.500 FPS (256 SPF)
Compression mode : Lossy
Stream size : 133 MiB (3%)
Language : English
Service kind : Complete Main
Default : Yes
Forced : No

Text
ID : 3
Format : UTF-8
Codec ID : S_TEXT/UTF8
Codec ID/Info : UTF-8 Plain Text
Duration : 1 h 22 min
Bit rate : 42 b/s
Count of elements : 985
Stream size : 25.5 KiB (0%)
Title : SDH
Language : English
Default : No
Forced : No
Category:Movies > WEB-HD
Lang:English  English
Total Size:4.27 GB
Info Hash:e0529487b1a374adf073f1e3c2c3d3179f4451d7
Added By:Agent47
Date Added:11-07-2018 15:43:29
Downloads:47

Download Torrent

Ratings:Not Yet Rated (Log in to rate it)


Tracker:
http://tracker.trackerfix.com:80/announce


File List: 


Comments

No comments still posted

Powered by 10 Hamsters v2-svn -|- Page Generated In 0.391982 secs.
-|- RSS Feed -|- Feed Info
Theme By: Nikkbu