Login
Username:
Password:
[Signup]
[Recover Account]


Browse Torrents

Poll


You must be logged in to view polls



Latest Torrents
Nanak Shah Fakir [...
- [Size: 4.91 GB]

18+.Affairs.Of.Sta...
- [Size: 938.25 MB]

The First Purge 20...
- [Size: 873.25 MB]

Power.2014.S05E04....
- [Size: 924.66 MB]

Power.2014.S05E04....
- [Size: 269.36 MB]


Torrent Details For "Zakhmi (2018) Hindi S01 Complete (EP01-11) 720p HDRip x264 AAC 2GB[MovCr]"

Zakhmi (2018) Hindi S01 Complete (EP01-11) 720p HDRip x264 AAC 2GB[MovCr]

Download this torrent | Magnet Download
Health:
Seeds: 137
Leechers: 1,002
Completed: 41 
Last Checked: 11-07-2018 17:00:09
External Torrent
Update Stats


Watch-Free-HD     Download

Poster


Watch-Free-HD     Download

Details
Name:Zakhmi (2018) Hindi S01 Complete (EP01-11) 720p HDRip x264 AAC 2GB[MovCr]
Description:
Visit  www.movcr.com

Zakhmi (2018) Hindi S01 Complete (EP01-11) 720p HDRip x264 AAC 2GB[MovCr]





General
Unique ID                   : 290828720309229714774048191918226263927 (0xDACB92F91419CBB2972424B76683CF77)
Complete name               : [MovCr.com] - Zakhmi (2018) Hindi S01 Complete (EP01-11) 720p HDRip x264 AAC 2GB[MovCr]\ZAKHMI S01E02 - MovCr.mkv
Format                      : Matroska
Format version              : Version 4 / Version 2
File size                   : 185 MiB
Duration                    : 21 min 17 s
Overall bit rate            : 1 215 kb/s
Movie name                  : www.MovCr.com
Encoded date                : UTC 2018-07-11 14:15:33
Writing application         : mkvmerge v23.0.0 ('The Bride Said No') 64-bit
Writing library             : libebml v1.3.6 + libmatroska v1.4.9

Video
ID                          : 1
Format                      : AVC
Format/Info                 : Advanced Video Codec
Format profile              : [email protected]
Format settings, CABAC      : Yes
Format settings, ReFrames   : 5 frames
Codec ID                    : V_MPEG4/ISO/AVC
Duration                    : 21 min 17 s
Bit rate                    : 1 088 kb/s
Width                       : 1 280 pixels
Height                      : 544 pixels
Display aspect ratio        : 2.35:1
Frame rate mode             : Constant
Frame rate                  : 25.000 FPS
Color space                 : YUV
Chroma subsampling          : 4:2:0
Bit depth                   : 8 bits
Scan type                   : Progressive
Bits/(Pixel*Frame)          : 0.063
Stream size                 : 165 MiB (89%)
Title                       : www.MovCr.com
Writing library             : x264 core 148 r2643 5c65704
Encoding settings           : cabac=1 / ref=5 / deblock=1:0:0 / analyse=0x3:0x113 / me=hex / subme=7 / psy=1 / psy_rd=1.00:0.00 / mixed_ref=1 / me_range=16 / chroma_me=1 / trellis=1 / 8x8dct=1 / cqm=0 / deadzone=21,11 / fast_pskip=1 / chroma_qp_offset=-2 / threads=8 / lookahead_threads=8 / sliced_threads=1 / slices=8 / nr=0 / decimate=1 / interlaced=0 / bluray_compat=0 / constrained_intra=0 / bframes=0 / weightp=2 / keyint=250 / keyint_min=25 / scenecut=40 / intra_refresh=0 / rc=2pass / mbtree=0 / bitrate=1088 / ratetol=1.0 / qcomp=0.60 / qpmin=0 / qpmax=69 / qpstep=4 / cplxblur=20.0 / qblur=0.5 / ip_ratio=1.40 / aq=1:1.00
Default                     : Yes
Forced                      : No

Audio
ID                          : 2
Format                      : AAC
Format/Info                 : Advanced Audio Codec
Format profile              : LC
Codec ID                    : A_AAC
Duration                    : 21 min 17 s
Bit rate                    : 128 kb/s
Channel(s)                  : 2 channels
Channel positions           : Front: L R
Sampling rate               : 48.0 kHz
Frame rate                  : 46.875 FPS (1024 spf)
Compression mode            : Lossy
Delay relative to video     : -43 ms
Stream size                 : 19.5 MiB (11%)
Default                     : Yes
Forced                      : No



 
 
 
 
 
 
 
 
 
 
 
 
Category:Movies > Bollywood
Lang:Hindi
Total Size:2.11 GB
Info Hash:1f6e3d342520cd8b6e1016bd6506cd9dad2b427f
Added By:Kingmaker
Date Added:11-07-2018 15:47:31
Downloads:581

Download Torrent

Ratings:Not Yet Rated (Log in to rate it)


Tracker:
udp://tracker.coppersurfer.tk:6969/announce


File List: 


Comments

<< Previous      Next >>
1 - 1

[Report] Posted: 12-07-2018 at 18:43:56
ladlaprince



Uploaded: 0.00 B
Downloaded: 0.00 B
Ratio: ---

Thanks

1 - 1
<< Previous      Next >>


Powered by 10 Hamsters v2-svn -|- Page Generated In 3.382186 secs.
-|- RSS Feed -|- Feed Info
Theme By: Nikkbu