Login
Username:
Password:
[Signup]
[Recover Account]


Browse Torrents

Poll


You must be logged in to view polls



Latest Torrents
Jurassic World Fal...
- [Size: 1.18 GB]

Black Panther 2018...
- [Size: 3.67 GB]

MCA (Middle Class ...
- [Size: 1.57 GB]

Mamma.Mia!.2.2018....
- [Size: 1.26 GB]

Terror 2 (Basanti)...
- [Size: 961.66 MB]


Torrent Details For "Jurassic City 2014 x264 720p Esub BluRay Dual Audio English Hindi GOPISAHI"

Jurassic City 2014 x264 720p Esub BluRay Dual Audio English Hindi GOPISAHI

Download this torrent | Magnet Download
Health:
Seeds: 0
Leechers: 0
Completed:
Last Checked: 11-07-2018 15:47:52
External Torrent
Update Stats


Watch-Free-HD     Download

Poster
No poster


Watch-Free-HD     Download

Details
Name:Jurassic City 2014 x264 720p Esub BluRay Dual Audio English Hindi GOPISAHI
Description:
 https://www.gopisahi.pw/


Format                         : Matroska

Format version                 : Version 4 / Version 2

File size                      : 631 MiB

Duration                       : 1 h 28 min

Overall bit rate               : 994 kb/s

Movie name                     : Jurassic City 2014 GOPISAHI


Video

Format                         : AVC

Codec ID                       : V_MPEG4/ISO/AVC

Duration                       : 1 h 28 min

Bit rate                       : 799 kb/s

Width                          : 1 280 pixels

Height                         : 720 pixels

Display aspect ratio           : 16:9

Frame rate mode                : Constant

Frame rate                     : 23.976 (24000/1001) FPS

Color space                    : YUV

Chroma subsampling             : 4:2:0

Bit depth                      : 8 bits

Scan type                      : Progressive

Bits/(Pixel*Frame)             : 0.036

Stream size                    : 507 MiB (80%)

Title                          : GOPISAHI

Writing library                : x264 core 148 r2708 86b7198


Audio #1

Format                         : AAC

Duration                       : 1 h 28 min

Bit rate                       : 96.0 kb/s

Channel(s)                     : 2 channels

Channel positions              : Front: L R

Sampling rate                  : 48.0 kHz

Frame rate                     : 46.875 FPS (1024 SPF)

Compression mode               : Lossy

Delay relative to video        : -21 ms

Stream size                    : 60.9 MiB (10%)

Title                          : GOPISAHI

Language                       : Hindi


Audio #2

Format                         : AAC

Duration                       : 1 h 28 min

Bit rate                       : 96.0 kb/s

Channel(s)                     : 2 channels

Channel positions              : Front: L R

Sampling rate                  : 48.0 kHz

Frame rate                     : 46.875 FPS (1024 SPF)

Compression mode               : Lossy

Delay relative to video        : -21 ms

Stream size                    : 61.1 MiB (10%)

Title                          : GOPISAHI

Language                       : English


Text

Language                       : English


Category:Movies > Hollywood Dub
Lang:Hindi
Total Size:631.05 MB
Info Hash:8a32a141035e576b74a0382add80f8095cd88d0d
Added By:gopisahi
Date Added:11-07-2018 15:47:52
Downloads:280

Download Torrent

Ratings:Not Yet Rated (Log in to rate it)


Tracker:
udp://9.rarbg.com:2740/announce


File List: 


Comments

No comments still posted

Powered by 10 Hamsters v2-svn -|- Page Generated In 3.187094 secs.
-|- RSS Feed -|- Feed Info
Theme By: Nikkbu