Login
Username:
Password:
[Signup]
[Recover Account]


Browse Torrents

Poll


You must be logged in to view polls



Latest Torrents
Parker 2013 x264 7...
- [Size: 843.81 MB]

Living.Biblically....
- [Size: 448.97 MB]

Living.Biblically....
- [Size: 128.89 MB]

Me.Myself.and.I.S0...
- [Size: 516.68 MB]

Me.Myself.and.I.S0...
- [Size: 154.15 MB]


Torrent Details For "Daas Dev 2018 x264 720p TV GOPISAHI"

Daas Dev 2018 x264 720p TV GOPISAHI

Download this torrent | Magnet Download
Health:
Seeds: 181
Leechers: 281
Completed: 134 
Last Checked: 12-07-2018 08:26:45
External Torrent
Update Stats


Watch-Free-HD     Download

Poster
No poster


Watch-Free-HD     Download

Details
Name:Daas Dev 2018 x264 720p TV GOPISAHI
Description:
 https://www.gopisahi.pw/


Format                         : Matroska
Format version                 : Version 4 / Version 2
File size                      : 545 MiB
Duration                       : 2 h 11 min
Overall bit rate               : 577 kb/s
Movie name                     : Daas Dev 2018 GOPISAHI

Video
Format                         : AVC
Codec ID                       : V_MPEG4/ISO/AVC
Duration                       : 2 h 11 min
Bit rate                       : 499 kb/s
Width                          : 1 280 pixels
Height                         : 578 pixels
Display aspect ratio           : 2.2:1
Frame rate mode                : Variable
Frame rate                     : 19.923 FPS
Color space                    : YUV
Chroma subsampling             : 4:2:0
Bit depth                      : 8 bits
Scan type                      : Progressive
Bits/(Pixel*Frame)             : 0.034
Stream size                    : 470 MiB (86%)
Title                          : GOPISAHI
Writing library                : x264 core 155 r2901 7d0ff22

Audio
Format                         : AAC
Duration                       : 2 h 11 min
Bit rate                       : 77.3 kb/s
Channel(s)                     : 2 channels
Channel positions              : Front: L R
Sampling rate                  : 48.0 kHz
Frame rate                     : 46.875 FPS (1024 SPF)
Compression mode               : Lossy
Delay relative to video        : -1 s 789 ms
Stream size                    : 72.8 MiB (13%)
Title                          : GOPISAHI
Language                       : Hindi


Category:Movies > Bollywood
Lang:Hindi
Total Size:544.68 MB
Info Hash:8c47cca66cc8c4560d00aa08f79809f17e70abc7
Added By:gopisahi
Date Added:12-07-2018 04:06:03
Downloads:384

Download Torrent

Ratings:Not Yet Rated (Log in to rate it)


Tracker:
udp://9.rarbg.com:2740/announce


File List: 


Comments

No comments still posted

Powered by 10 Hamsters v2-svn -|- Page Generated In 0.462240 secs.
-|- RSS Feed -|- Feed Info
Theme By: Nikkbu