Login
Username:
Password:
[Signup]
[Recover Account]


Browse Torrents

Poll


You must be logged in to view polls



Latest Torrents
Duck Duck Goose 20...
- [Size: 748.17 MB]

Just.for.Laughs.Al...
- [Size: 400.22 MB]

Doctor X Season 2 ...
- [Size: 10.53 GB]

Truth or Tamanna V...
- [Size: 4.01 GB]

Just.for.Laughs.Al...
- [Size: 399.74 MB]


Torrent Details For "The Amazing Spider-Man 2(2014) 720p WEBDL Esub DTS Audio(Hindi)-HDprintMovies"

The Amazing Spider-Man 2(2014) 720p WEBDL Esub DTS Audio(Hindi)-HDprintMovies

Download this torrent | Magnet Download
Health:
Seeds: 11
Leechers: 13
Completed: 17 
Last Checked: 14-07-2018 03:45:43
External Torrent
Update Stats


Watch-Free-HD     Download

Poster


iMDB
Imdb Picture Title: The Amazing Spider-Man 2
Year: 2014
Runtime: 142 minutes
Votes: 341460
Rating: 6.7/10
Language: English
Country: USA
All Genres: Action, Adventure, Sci-Fi
Plot Outline: When New York is put under siege by Oscorp, it is up to Spider-Man to save the city he swore to protect as well as his loved ones.
Tagline: His greatest battle begins.
Director: Marc Webb
Writing By: Alex Kurtzman,Roberto Orci,Jeff Pinkner,Alex Kurtzman,Roberto Orci,Jeff Pinkner,James Vanderbilt,Stan Lee,Steve Ditko,
Produced By: Avi Arad,Tom Cohen,Alex Kurtzman,Stan Lee,Roberto Orci,Beatriz Sequeira,Matthew Tolmach,E. Bennett Walsh,
Music: Michael Einziger Junkie XL Johnny Marr Pharrell Williams Hans Zimmer
Plot:

We've always known that Spider-Man's most important conflict has been within himself: the struggle between the ordinary obligations of Peter Parker and the extraordinary responsibilities of Spider-Man. But in The Amazing Spider-Man 2, Peter Parker finds that his greatest battle is about to begin. It's great to be Spider-Man. For Peter Parker, there's no feeling quite like swinging between skyscrapers, embracing being the hero, and spending time with Gwen. But being Spider-Man comes at a price: only Spider-Man can protect his fellow New Yorkers from the formidable villains that threaten the city. With the emergence of Electro, Peter must confront a foe far more powerful than he. And as his old friend, Harry Osborn, returns, Peter comes to realize that all of his enemies have one thing in common: Oscorp.

- Written by Sony Pictures Entertainment

As Peter Parker trying to find out the truth about his father his long lost friend came back to New York city but he figures out he is dying like his father did he tries to get Spider-Man blood he fails and.wants revenge on Spider-Man he gets a partner max Dillon who used to love Spider-Man but is now electro and Harry Osborn becomes the green goblin and figures out Peter Parkers secret and now they are going to break Spider-Man.

When New York is put under siege by Oscorp, it is up to Spider-Man to save the city he swore to protect as well as his loved ones.

- Written by IMDBreviewer123
Cast:
Andrew Garfield as Spider-Man / Peter Parker
Emma Stone as Gwen Stacy
Jamie Foxx as Electro / Max Dillon
Dane DeHaan as Green Goblin / Harry Osborn
Colm Feore as Donald Menken
Felicity Jones as Felicia
Paul Giamatti as Aleksei Sytsevich
Sally Field as Aunt May
Embeth Davidtz as Mary Parker
Campbell Scott as Richard Parker
Trailers:
Trailer #1
The Amazing Spider-Man 2: Final Trailer
Teaser Trailer
Theatrical Trailer


Watch-Free-HD     Download

Details
Name:The Amazing Spider-Man 2(2014) 720p WEBDL Esub DTS Audio(Hindi)-HDprintMovies
Description:




General
Unique ID                                : 46893411613991919805459303631552488582 (0x234757B227CB192F649696083F8FA486)
Complete name                            : The Amazing Spider-Man 2(2014) 720p WEBDL Esub DTS Audio(Hindi)-HDprintMovies.mkv
Format                                   : Matroska
File size                                : 2.66 GiB
Duration                                 : 2 h 21 min
Overall bit rate                         : 2 686 kb/s

Video
ID                                       : 1
Format/Info                              : Advanced Video Codec
Width                                    : 1 368 pixels
Height                                   : 760 pixels
Display aspect ratio                     : 16:9
Frame rate mode                          : Constant
Frame rate                               : 29.970 (30000/1001) FPS
Color space                              : YUV
Chroma subsampling                       : 4:2:0
Bit depth                                : 8 bits
Scan type                                : Progressive
Bits/(Pixel*Frame)                       : 0.068
Stream size                              : 2.10 GiB (79%)
Language                                 : English
Default                                  : Yes
Forced                                   : No

Audio
ID                                       : 2
Format                                   : DTS
Format/Info                              : Digital Theater Systems
Codec ID                                 : A_DTS
Duration                                 : 2 h 21 min
Bit rate mode                            : Constant
Bit rate                                 : 510 kb/s
Channel(s)                               : 2 channels
Channel positions                        : Front: L R
Sampling rate                            : 48.0 kHz
Frame rate                               : 46.875 FPS (1024 SPF)
Bit depth                                : 24 bits
Compression mode                         : Lossy
Stream size                              : 516 MiB (19%)
Language                                 : English
Default                                  : Yes
Forced                                   : No















Category:Movies > Hollywood Dub
Lang:Hindi
Total Size:2.66 GB
Info Hash:d7625be8ad3f010058ad7352c5785a74170e527c
Added By:suman142
Date Added:12-07-2018 15:49:37
Downloads:153

Download Torrent

Ratings:Not Yet Rated (Log in to rate it)


Tracker:
udp://tracker.coppersurfer.tk:6969/announce


File List: 


Comments

No comments still posted

Powered by 10 Hamsters v2-svn -|- Page Generated In 5.012632 secs.
-|- RSS Feed -|- Feed Info
Theme By: Nikkbu