Login
Username:
Password:
[Signup]
[Recover Account]


Browse Torrents

Poll


You must be logged in to view polls



Latest Torrents
Living.Biblically....
- [Size: 448.97 MB]

Living.Biblically....
- [Size: 128.89 MB]

Me.Myself.and.I.S0...
- [Size: 516.68 MB]

Me.Myself.and.I.S0...
- [Size: 154.15 MB]

Me.Myself.and.I.S0...
- [Size: 462.55 MB]


Torrent Details For "Life Sahi Hai 2(2018)-Season 2-5 Episodes 720p WEBDL 2.0-DTS Audio-HDprintMovies"

Life Sahi Hai 2(2018)-Season 2-5 Episodes 720p WEBDL 2.0-DTS Audio-HDprintMovies

Download this torrent | Magnet Download
Health:
Seeds: 10
Leechers: 22
Completed: 54 
Last Checked: 14-07-2018 21:00:21
External Torrent
Update Stats


Watch-Free-HD     Download

Poster


iMDB
Imdb Picture Title: "Life Sahi Hai" The Roommate
Year: 2018
All Genres: Comedy
Plot Outline: As Amit and Jasjit face eviction from their building, they hurry to find a perfect replacement for Siddharth and Sahil. After meeting a few prospects, they zero down on Vaibhav, who seems to be simple and sober, just what the boys were looking for. Written by ankurzden


Director: Umesh Ghadge
Writing By: Tarun Jain,
Cast:
Vaibhav Raj Gupta as Vaibhav / Prasoon
Tarun Jain as Amit Jain
Suhail Nayyar as Jasjit Singh
Namya Saxena as Priya


Watch-Free-HD     Download

Details
Name:Life Sahi Hai 2(2018)-Season 2-5 Episodes 720p WEBDL 2.0-DTS Audio-HDprintMovies
Description:
Life Sahi Hai 2

ZEE5 Originals .Season 2 .5 Episodes
Drama, Comedy . Hindi


Overview

Life Sahi Hai 2 is a popular comedy series starring Suhail Nayyar, Tarun Jain, Vaibhav Raj Gupta and Namya Saxena. Amit and Jasjit are joined by a new roommate, Vaibhav, who comes across a very sorted and sober guy. However, they soon discover Vaibhav is more troublesome than they imagined and get into trouble with their girlfriends, bosses, parents, neighbours and even the police! Shameless as ever, they breeze through their problems with the motto - 'Life Sahi Hai'.


Released On 5 Apr, 2018
Subtitles English
Audio Languages Hindi




General
Unique ID                                : 74775323405158501647583552482583628166 (0x38413414F411C1AFE7F425A6030DC986)
Complete name                            : E:\Life Sahi Hai 2(2018)-Season 2-5 Episodes 720p WEBDL 2.0-DTS Audio-HDprintMovies\Life Sahi Hai 2 - Episode 01 - The Roommate 720p WEBDL DTS Audio-HDprintMovies.mkv
Format                                   : Matroska
Overall bit rate                         : 2 677 kb/s

Video
ID                                       : 1
Format                                   : AVC
Format/Info                              : Advanced Video Codec
Bit rate mode                            : Variable
Bit rate                                 : 2 114 kb/s
Maximum bit rate                         : 2 186 kb/s
Width                                    : 1 368 pixels
Height                                   : 760 pixels
Display aspect ratio                     : 16:9
Frame rate mode                          : Constant
Frame rate                               : 29.970 (30000/1001) FPS
Color space                              : YUV
Chroma subsampling                       : 4:2:0
Bit depth                                : 8 bits
Scan type                                : Progressive
Bits/(Pixel*Frame)                       : 0.068
Stream size                              : 334 MiB (79%)
Language                                 : English
Default                                  : Yes
Forced                                   : No

Audio
ID                                       : 2
Format                                   : DTS
Format/Info                              : Digital Theater Systems
Codec ID                                 : A_DTS
Duration                                 : 22 min 5 s
Bit rate mode                            : Constant
Bit rate                                 : 510 kb/s
Channel(s)                               : 2 channels
Channel positions                        : Front: L R
Sampling rate                            : 48.0 kHz
Frame rate                               : 46.875 FPS (1024 SPF)
Bit depth                                : 24 bits
Compression mode                         : Lossy
Stream size                              : 80.6 MiB (19%)
Language                                 : English
Default                                  : Yes
Forced                                   : No














Category:TV > WEB-HD
Lang:Hindi
Total Size:2.09 GB
Info Hash:af57df760b3c9a6c6b38271df0218fb196033135
Added By:suman142
Date Added:12-07-2018 16:41:00
Downloads:205

Download Torrent

Ratings:Not Yet Rated (Log in to rate it)


Tracker:
udp://tracker.coppersurfer.tk:6969/announce


File List: 


Comments

No comments still posted

Powered by 10 Hamsters v2-svn -|- Page Generated In 3.126141 secs.
-|- RSS Feed -|- Feed Info
Theme By: Nikkbu