Login
Username:
Password:
[Signup]
[Recover Account]


Browse Torrents

Poll


You must be logged in to view polls



Latest Torrents
Living.Biblically....
- [Size: 448.97 MB]

Living.Biblically....
- [Size: 128.89 MB]

Me.Myself.and.I.S0...
- [Size: 516.68 MB]

Me.Myself.and.I.S0...
- [Size: 154.15 MB]

Me.Myself.and.I.S0...
- [Size: 462.55 MB]


Torrent Details For "Romeo Express (2018) 720p Hindi Dubbed WEBHD x264 AAC 900MB [MovCr]"

Romeo Express (2018) 720p Hindi Dubbed WEBHD x264 AAC 900MB [MovCr]

Download this torrent | Magnet Download
Health:
Seeds: 0
Leechers: 0
Completed:
Last Checked: 12-07-2018 20:17:34
External Torrent
Update Stats


Watch-Free-HD     Download

Poster


iMDB
Title: Kathiruppor Pattiyal
Year: 2018
Language: Tamil
Country: India
All Genres: Romance
Director: Balaiya Rajasekhar

Cast:
Sachin Mani as
Rajendran as
Nandita Shwetha as


Watch-Free-HD     Download

Details
Name:Romeo Express (2018) 720p Hindi Dubbed WEBHD x264 AAC 900MB [MovCr]
Description:
Visit Our Site  www.movcr.com

Kathiruppor Pattiyal (2018) Tamil In Hindi Dubbed

 https://www.imdb.com/title/tt8176308/

 

General
Unique ID                   : 224252811506369116930751362046941856394 (0xA8B5853E21E10F18C04931F45C76028A)
Complete name               : www.MovCr.com - Romeo Express (2018) 720p Hindi Dubbed WEBHD x264 AAC 900MB [MovCr].mkv
Format                      : Matroska
Format version              : Version 4 / Version 2
File size                   : 893 MiB
Duration                    : 1 h 45 min
Overall bit rate            : 1 181 kb/s
Movie name                  : www.MovCr.com
Encoded date                : UTC 2018-07-12 19:04:24
Writing application         : mkvmerge v23.0.0 ('The Bride Said No') 64-bit
Writing library             : libebml v1.3.6 + libmatroska v1.4.9

Video
ID                          : 1
Format                      : AVC
Format/Info                 : Advanced Video Codec
Format profile              : [email protected]
Format settings, CABAC      : Yes
Format settings, ReFrames   : 3 frames
Codec ID                    : V_MPEG4/ISO/AVC
Duration                    : 1 h 45 min
Bit rate                    : 1 053 kb/s
Width                       : 1 280 pixels
Height                      : 720 pixels
Display aspect ratio        : 16:9
Frame rate mode             : Constant
Frame rate                  : 24.000 FPS
Color space                 : YUV
Chroma subsampling          : 4:2:0
Bit depth                   : 8 bits
Scan type                   : Progressive
Bits/(Pixel*Frame)          : 0.048
Stream size                 : 796 MiB (89%)
Title                       : www.MovCr.com
Default                     : Yes
Forced                      : No
Color range                 : Limited
Color primaries             : BT.709
Transfer characteristics    : BT.709
Matrix coefficients         : BT.709

Audio
ID                          : 2
Format                      : AAC
Format/Info                 : Advanced Audio Codec
Format profile              : LC
Codec ID                    : A_AAC
Duration                    : 1 h 45 min
Bit rate                    : 126 kb/s
Channel(s)                  : 2 channels
Channel positions           : Front: L R
Sampling rate               : 44.1 kHz
Frame rate                  : 43.066 FPS (1024 spf)
Compression mode            : Lossy
Delay relative to video     : 85 ms
Stream size                 : 95.0 MiB (11%)
Title                       : www.MovCr.com
Language                    : Hindi
Default                     : Yes
Forced                      : No



 
 
 
 
 
 
 
 

Category:Movies > South Dub
Lang:Hindi
Total Size:893.14 MB
Info Hash:bbe1e406cf58f1d6578daafa70271c412c0bd2fc
Added By:Kingmaker
Date Added:12-07-2018 20:17:34
Downloads:595

Download Torrent

Ratings:Not Yet Rated (Log in to rate it)


Tracker:
udp://tracker.coppersurfer.tk:6969/announce


File List: 


Comments

No comments still posted

Powered by 10 Hamsters v2-svn -|- Page Generated In 1.832294 secs.
-|- RSS Feed -|- Feed Info
Theme By: Nikkbu