Login
Username:
Password:
[Signup]
[Recover Account]


Browse Torrents

Poll


You must be logged in to view polls



Latest Torrents
Lage Raho Munna Bh...
- [Size: 1.27 GB]

Munna Bhai M.B.B.S...
- [Size: 1.29 GB]

The.Affair.S04.WEB...
- [Size: 4.97 GB]

WWE SummerSlam 201...
- [Size: 2.48 GB]

Insecure.S03E02.WE...
- [Size: 157.36 MB]


Torrent Details For "Skyscraper (2018) 720p HDRip HQ Clean Audios [Hindi+Telugu+Tamil+English] -1.2GB [MovCr]"

Skyscraper (2018) 720p HDRip HQ Clean Audios [Hindi+Telugu+Tamil+English] -1.2GB [MovCr]

Download this torrent | Magnet Download
Health:
Seeds: 2,726
Leechers: 753
Completed: 17,907 
Last Checked: 13-08-2018 14:18:33
External Torrent
Update Stats



Poster


iMDB
Imdb Picture Title: Skyscraper
Year: 2018
Runtime: 102 minutes
Votes: 2668
Rating: 6.1/10
Language: English
Country: USA
All Genres: Action, Crime, Drama, Thriller
Plot Outline: FBI Hostage Rescue Team leader and U.S. war veteran Will Sawyer now assesses security for skyscrapers. On assignment in Hong Kong he finds the tallest, safest building in the world suddenly ablaze, and he's been framed for it. A wanted man on the run, Will must find those responsible, clear his name and somehow rescue his family who are trapped inside the building...above the fire line.


Tagline: The sky is the limit.
Director: Rawson Marshall Thurber
Writing By: Rawson Marshall Thurber,
Produced By: James Bitonti,Beau Flynn,Dany Garcia,Hiram Garcia,Eric Hedayat,Petra Holtorf,Wendy Jacobson,Dwayne Johnson,Eric McLeod,Ali Mendes,Mary Parent,David Siegel,
Music: Steve Jablonsky
Cast:
Dwayne Johnson as Will Sawyer
Neve Campbell as Sarah Sawyer
Pablo Schreiber as Ben
Noah Taylor as Mr. Pierce
McKenna Roberts as Georgia Sawyer
Kevin Rankin as Ray
Roland Møller as Kores Botha
Byron Mann as Inspector Wu
Matt O'Leary as Skinny Hacker
Hannah Quinlivan as Xia
Trailers:
Official Trailer #3
Official Trailer #2
Official Trailer
Big Game Spot



Details
Name:Skyscraper (2018) 720p HDRip HQ Clean Audios [Hindi+Telugu+Tamil+English] -1.2GB [MovCr]
Description:
Bookmark Our Site For Exclusives   www.movcr.com


Skyscraper (2018) 720p HDRip HQ Clean Audios [Hindi+Telugu+Tamil+English] - [MovCr]


 https://www.imdb.com/title/tt5758778/

 

General
Unique ID                                : 259584618246569611911761111524801093697 (0xC34A2DCEE72D4BDD237495A983F5A041)
Complete name                            : [www.MovCr.com] Skyscraper (2018) 720p HDRip HQ Clean Audios [Hindi+Telugu+Tamil+English] - MovCr]\www.MovCr.com - Skyscraper (2018) 720p HDRip HQ Clean Audios [Hindi+Telugu+Tamil+English] - 1.2GB MovCr].mkv
Format                                   : Matroska
Format version                           : Version 4 / Version 2
File size                                : 1.14 GiB
Duration                                 : 1 h 42 min
Overall bit rate mode                    : Variable
Overall bit rate                         : 1 587 kb/s
Movie name                               : www.MovCr.com
Encoded date                             : UTC 2018-08-10 17:07:23
Writing application                      : mkvmerge v23.0.0 ('The Bride Said No') 64-bit
Writing library                          : libebml v1.3.6 + libmatroska v1.4.9

Video
ID                                       : 1
Format                                   : AVC
Format/Info                              : Advanced Video Codec
Format profile                           : [email protected]
Format settings                          : CABAC / 2 Ref Frames
Format settings, CABAC                   : Yes
Format settings, RefFrames               : 2 frames
Format settings, GOP                     : M=1, N=25
Codec ID                                 : V_MPEG4/ISO/AVC
Duration                                 : 1 h 42 min
Bit rate                                 : 1 125 kb/s
Width                                    : 1 280 pixels
Height                                   : 544 pixels
Display aspect ratio                     : 2.35:1
Frame rate mode                          : Constant
Frame rate                               : 30.000 FPS
Color space                              : YUV
Chroma subsampling                       : 4:2:0
Bit depth                                : 8 bits
Scan type                                : Progressive
Bits/(Pixel*Frame)                       : 0.054
Stream size                              : 824 MiB (71%)
Title                                    : www.MovCr.com
Default                                  : Yes
Forced                                   : No

Audio #1
ID                                       : 2
Format                                   : AAC
Format/Info                              : Advanced Audio Codec
Format profile                           : LC
Codec ID                                 : A_AAC-2
Duration                                 : 1 h 42 min
Bit rate                                 : 196 kb/s
Channel(s)                               : 2 channels
Channel positions                        : Front: L R
Sampling rate                            : 48.0 kHz
Frame rate                               : 46.875 FPS (1024 SPF)
Compression mode                         : Lossy
Stream size                              : 144 MiB (12%)
Title                                    : www.MovCr.com
Language                                 : English
Default                                  : No
Forced                                   : No

Audio #2
ID                                       : 3
Format                                   : MPEG Audio
Format version                           : Version 2
Format profile                           : Layer 3
Format settings                          : Joint stereo / MS Stereo
Codec ID                                 : A_MPEG/L3
Codec ID/Hint                            : MP3
Duration                                 : 1 h 42 min
Bit rate mode                            : Variable
Bit rate                                 : 91.0 kb/s
Nominal bit rate                         : 96.0 kb/s
Channel(s)                               : 2 channels
Sampling rate                            : 16.0 kHz
Frame rate                               : 27.778 FPS (576 SPF)
Compression mode                         : Lossy
Stream size                              : 66.7 MiB (6%)
Title                                    : www.MovCr.com
Writing library                          : LAME3.99r
Encoding settings                        : -m j -V 4 -q 3 -lowpass 8 --abr 96
Language                                 : Telugu
Default                                  : No
Forced                                   : No

Audio #3
ID                                       : 4
Format                                   : MPEG Audio
Format version                           : Version 1
Format profile                           : Layer 3
Format settings                          : Joint stereo / MS Stereo
Codec ID                                 : A_MPEG/L3
Codec ID/Hint                            : MP3
Duration                                 : 1 h 42 min
Bit rate mode                            : Variable
Bit rate                                 : 84.5 kb/s
Nominal bit rate                         : 96.0 kb/s
Channel(s)                               : 2 channels
Sampling rate                            : 44.1 kHz
Frame rate                               : 38.281 FPS (1152 SPF)
Compression mode                         : Lossy
Stream size                              : 61.9 MiB (5%)
Title                                    : www.MovCr.com
Writing library                          : LAME3.99r
Encoding settings                        : -m j -V 4 -q 3 -lowpass 15.1 --abr 96
Language                                 : Tamil
Default                                  : No
Forced                                   : No

Audio #4
ID                                       : 5
Format                                   : MPEG Audio
Format version                           : Version 2
Format profile                           : Layer 3
Format settings                          : Joint stereo / MS Stereo
Codec ID                                 : A_MPEG/L3
Codec ID/Hint                            : MP3
Duration                                 : 1 h 42 min
Bit rate mode                            : Variable
Bit rate                                 : 86.1 kb/s
Nominal bit rate                         : 96.0 kb/s
Channel(s)                               : 2 channels
Sampling rate                            : 16.0 kHz
Frame rate                               : 27.778 FPS (576 SPF)
Compression mode                         : Lossy
Stream size                              : 63.1 MiB (5%)
Title                                    : www.MovCr.com
Writing library                          : LAME3.99r
Encoding settings                        : -m j -V 4 -q 3 -lowpass 8 --abr 96
Language                                 : Hindi
Default                                  : Yes
Forced                                   : Yes



 
 
 
 
 
 
 
 
 
Category:Movies > Hollywood Dub
Lang:Hindi
Total Size:1.14 GB
Info Hash:bf7a292fbed94d10ff06a6bb28cb946027bbf93a
Added By:Kingmaker
Date Added:10-08-2018 18:23:29
Downloads:1,590

Ratings:Not Yet Rated (Log in to rate it)


Tracker:
udp://tracker.coppersurfer.tk:6969/announce


File List: 


Comments

No comments still posted

Copyright 2018 Hon3yHD -|- Page Generated In 1.723197 secs.
-|- RSS Feed -|- Feed Info