Login
Username:
Password:
[Signup]
[Recover Account]


Browse Torrents

Poll


You must be logged in to view polls



Latest Torrents
Boar.2017.BDRip.x2...
- [Size: 581.16 MB]

Kuldip.Patwal.2018...
- [Size: 1.45 GB]

Deadpool 2 2018 Su...
- [Size: 7.41 GB]

102.Not.Out.2018.H...
- [Size: 3.00 GB]

Live.PD.S02E79.HDT...
- [Size: 1.27 GB]


Torrent Details For "Skyscraper 2018 720p HC HDRip x264 Dual Audio [Hindi - English] [MW]"

Skyscraper 2018 720p HC HDRip x264 Dual Audio [Hindi - English] [MW]

Download this torrent | Magnet Download
Health:
Seeds: 1,313
Leechers: 3,040
Completed: 1,373 
Last Checked: 11-08-2018 10:04:46
External Torrent
Update Stats



Poster
No poster



Details
Name:Skyscraper 2018 720p HC HDRip x264 Dual Audio [Hindi - English] [MW]
Description:

 


General
Format                                   : Matroska
Format version                           : Version 4 / Version 2
File size                                : 916 MiB
Duration                                 : 1 h 42 min
Overall bit rate                         : 1 250 kb/s

Video
ID                                       : 1
Format                                   : AVC
Format/Info                              : Advanced Video Codec
Format profile                           : [email protected]
Format settings                          : CABAC / 4 Ref Frames
Format settings, CABAC                   : Yes
Format settings, RefFrames               : 4 frames
Codec ID                                 : V_MPEG4/ISO/AVC
Duration                                 : 1 h 42 min
Bit rate                                 : 1 000 kb/s
Width                                    : 1 280 pixels
Height                                   : 536 pixels
Display aspect ratio                     : 2.40:1
Frame rate mode                          : Constant
Frame rate                               : 30.000 FPS
Color space                              : YUV
Chroma subsampling                       : 4:2:0
Bit depth                                : 8 bits
Scan type                                : Progressive
Bits/(Pixel*Frame)                       : 0.049
Stream size                              : 726 MiB (79%)
Writing library                          : x264 core 155 r2901 7d0ff22
Default                                  : Yes
Forced                                   : No

Audio #1
ID                                       : 2
Format                                   : AAC
Format/Info                              : Advanced Audio Codec
Format profile                           : LC
Codec ID                                 : A_AAC-2
Duration                                 : 1 h 42 min
Bit rate                                 : 128 kb/s
Channel(s)                               : 2 channels
Channel positions                        : Front: L R
Sampling rate                            : 48.0 kHz
Frame rate                               : 46.875 FPS (1024 SPF)
Compression mode                         : Lossy
Stream size                              : 93.8 MiB (10%)
Language                                 : Hindi
Default                                  : Yes
Forced                                   : No

Audio #2
ID                                       : 3
Format                                   : AAC
Format/Info                              : Advanced Audio Codec
Format profile                           : LC
Codec ID                                 : A_AAC-2
Duration                                 : 1 h 42 min
Bit rate                                 : 128 kb/s
Channel(s)                               : 2 channels
Channel positions                        : Front: L R
Sampling rate                            : 48.0 kHz
Frame rate                               : 46.875 FPS (1024 SPF)
Compression mode                         : Lossy
Delay relative to video                  : 109 ms
Stream size                              : 93.8 MiB (10%)
Language                                 : English
Default                                  : No
Forced                                   : No


 https://pichub.site/image/RFnSX
 https://pichub.site/image/RF1M5
 https://pichub.site/image/RF3nJ
 https://pichub.site/image/RF9th
 https://pichub.site/image/RFHpj
 https://pichub.site/image/RFTer

Category:Movies > Hollywood Dub
Lang:Hindi
Total Size:916.04 MB
Info Hash:78ef075f1361b252198f7b2055388eb5f68ac806
Added By:Freaky
Date Added:11-08-2018 07:59:13
Downloads:309

Ratings:Not Yet Rated (Log in to rate it)


Tracker:
udp://tracker.coppersurfer.tk:6969/announce


File List: 


Comments

No comments still posted

Copyright 2018 Hon3yHD -|- Page Generated In 0.338994 secs.
-|- RSS Feed -|- Feed Info