Login
Username:
Password:
[Signup]
[Recover Account]


Browse Torrents

Poll


You must be logged in to view polls



Latest Torrents
Boar.2017.BDRip.x2...
- [Size: 581.16 MB]

Kuldip.Patwal.2018...
- [Size: 1.45 GB]

Deadpool 2 2018 Su...
- [Size: 7.41 GB]

102.Not.Out.2018.H...
- [Size: 3.00 GB]

Live.PD.S02E79.HDT...
- [Size: 1.27 GB]


Torrent Details For "Vendetta 2015 x264 720p Esub BluRay Dual Audio English Hindi GOPISAHI"

Vendetta 2015 x264 720p Esub BluRay Dual Audio English Hindi GOPISAHI

Download this torrent | Magnet Download
Health:
Seeds: 435
Leechers: 628
Completed: 253 
Last Checked: 11-08-2018 13:07:36
External Torrent
Update Stats



Poster
No poster



Details
Name:Vendetta 2015 x264 720p Esub BluRay Dual Audio English Hindi GOPISAHI
Description:
 https://www.gopisahi.pw/

Format                         : Matroska

Format version                 : Version 4 / Version 2

File size                      : 642 MiB

Duration                       : 1 h 30 min

Overall bit rate               : 996 kb/s

Movie name                     : Vendetta 2015 GOPISAHI


Video

Format                         : AVC

Format/Info                    : Advanced Video Codec

Codec ID                       : V_MPEG4/ISO/AVC

Duration                       : 1 h 30 min

Bit rate                       : 799 kb/s

Width                          : 1 280 pixels

Height                         : 720 pixels

Display aspect ratio           : 16:9

Frame rate mode                : Constant

Frame rate                     : 23.976 (24000/1001) FPS

Color space                    : YUV

Chroma subsampling             : 4:2:0

Bit depth                      : 8 bits

Scan type                      : Progressive

Bits/(Pixel*Frame)             : 0.036

Stream size                    : 515 MiB (80%)

Title                          : GOPISAHI

Writing library                : x264 core 155 r2901 7d0ff22


Audio #1

Format                         : AAC

Format/Info                    : Advanced Audio Codec

Duration                       : 1 h 30 min

Bit rate                       : 98.4 kb/s

Channel(s)                     : 2 channels

Channel positions              : Front: L R

Sampling rate                  : 48.0 kHz

Frame rate                     : 46.875 FPS (1024 SPF)

Compression mode               : Lossy

Delay relative to video        : -21 ms

Stream size                    : 63.4 MiB (10%)

Title                          : GOPISAHI

Language                       : Hindi


Audio #2

Format                         : AAC

Format/Info                    : Advanced Audio Codec

Duration                       : 1 h 30 min

Bit rate                       : 96.0 kb/s

Channel(s)                     : 2 channels

Channel positions              : Front: L R

Sampling rate                  : 48.0 kHz

Frame rate                     : 46.875 FPS (1024 SPF)

Compression mode               : Lossy

Delay relative to video        : -21 ms

Stream size                    : 62.0 MiB (10%)

Title                          : GOPISAHI

Language                       : English


Text

Language                       : English


Category:Movies > Hollywood Dub
Lang:Hindi
Total Size:642.18 MB
Info Hash:360b50da3db4094cae5d7d522f4459abe916b81b
Added By:gopisahi
Date Added:11-08-2018 08:12:58
Downloads:272

Ratings:Not Yet Rated (Log in to rate it)


Tracker:
udp://tracker.torrent.eu.org:451/announce

This Torrent also has backup trackers
URLSeedersLeechersCompleted
http://retracker.spb.ru:80/announce000
http://t.nyaatracker.com:80/announce000
http://retracker.mgts.by:80/announce000
http://tracker2.itzmx.com:6961/announce000


File List: 


Comments

No comments still posted

Copyright 2018 Hon3yHD -|- Page Generated In 0.492401 secs.
-|- RSS Feed -|- Feed Info