Login
Username:
Password:
[Signup]
[Recover Account]


Browse Torrents

Poll


You must be logged in to view polls



Latest Torrents
Skyscraper 2018 x2...
- [Size: 423.27 MB]

[18+] Karenjit Kau...
- [Size: 2.37 GB]

Robot.Chicken.S09E...
- [Size: 89.67 MB]

The Honey Killer 2...
- [Size: 1.35 GB]

Single AF 2018 108...
- [Size: 923.20 MB]


Torrent Details For "Khoon Ka Karz (1991) Hindi Untouched 720p WEB-DL x264 AAC - Hon3yHD"

Khoon Ka Karz (1991) Hindi Untouched 720p WEB-DL x264 AAC - Hon3yHD

Download this torrent | Magnet Download
Health:
Seeds: 0
Leechers: 18
Completed:
Last Checked: 04-02-2018 18:32:24
External Torrent
Update Stats


Watch-Free-HD     Download

Poster


iMDB
Imdb Picture Title: Khoon Ka Karz
Year: 1991
Votes: 54
Rating: 4.7/10
Language: Hindi
Country: India
All Genres: Action, Crime, Drama
Plot Outline: Arrested for a wide variety of infringements of the Indian Penal Code, Karan, Kishan and Arjun recount to the Court how two of them were adopted and nursed by a saintly woman, Sarita Devi; ...
Director: Mukul Anand
Writing By: Mukul Anand,Kader Khan,
Produced By: Bhappi Sonie,
Music: Laxmikant Shantaram Kudalkar Pyarelal Ramprasad Sharma
Plot:

Arrested for a wide variety of infringements of the Indian Penal Code, Karan, Kishan and Arjun recount to the Court how two of them were adopted and nursed by a saintly woman, Sarita Devi; how they fell in love with Tara, Sheetal and Sagarika respectively; how they took to crime; the transformation of a oil merchant to Hitler and Shri Ravan; and how they ended up being arrested by the police and in the present predicament.

- Written by rAjOo ([email protected])

Three men, Karan, Kishan and Arjun are arrested and placed before the judge in a court of law. As they recount the carnage they encounter in life; they all point out at an acquaintance, the saintly Savitri Devi - who would have known to raise two of them. The short-comings they encounter in life push them to become criminals and thus this speaks of their current predicament.

- Written by gavin ([email protected])
Cast:
Vinod Khanna as Karan
Dimple Kapadia as Tara K. Lele
Rajinikanth as Kishan
Sanjay Dutt as Arjun
Kimi Katkar as Sheetal
Sangeeta Bijlani as Sagarika D. Mehta
Shakti Kapoor as Inspector P.K. Lele
Sushma Seth as Maa Savitri Devi
Kader Khan as Champaklal / Hitler Champaklal / Ravana Champaklal
Kiran Kumar as Ramesh 'Robin'


Watch-Free-HD     Download

Details
Name:Khoon Ka Karz (1991) Hindi Untouched 720p WEB-DL x264 AAC - Hon3yHD
Description:

Khoon Ka Karz (1991) Hindi Untouched 720p WEB-DL x264 AAC - Hon3yHD


Format                                   : MPEG-4
Format profile                           : Base Media
Codec ID                                 : isom (isom/iso2/avc1/mp41)
File size                                : 1.74 GiB
Duration                                 : 2 h 32 min
Overall bit rate                         : 1 633 kb/s


Video
ID                                       : 1
Format                                   : AVC
Format/Info                              : Advanced Video Codec
Format profile                           : [email protected]
Format settings, CABAC                   : Yes
Format settings, ReFrames                : 3 frames
Format settings, GOP                     : M=1, N=50
Codec ID                                 : avc1
Codec ID/Info                            : Advanced Video Coding
Duration                                 : 2 h 32 min
Bit rate                                 : 1 500 kb/s
Width                                    : 1 280 pixels
Height                                   : 720 pixels
Display aspect ratio                     : 16:9
Frame rate mode                          : Constant
Frame rate                               : 25.000 FPS
Color space                              : YUV
Chroma subsampling                       : 4:2:0
Bit depth                                : 8 bits
Scan type                                : Progressive
Bits/(Pixel*Frame)                       : 0.065
Stream size                              : 1.60 GiB (92%)
Writing library                          : Zencoder Video Encoding System
Color range                              : Limited
Color primaries                          : BT.709
Transfer characteristics                 : BT.709
Matrix coefficients                      : BT.709

Audio
ID                                       : 2
Format                                   : AAC
Format/Info                              : Advanced Audio Codec
Format profile                           : LC
Codec ID                                 : 40
Duration                                 : 2 h 32 min
Bit rate mode                            : Constant
Bit rate                                 : 128 kb/s
Channel(s)                               : 2 channels
Channel positions                        : Front: L R
Sampling rate                            : 44.1 kHz
Frame rate                               : 43.066 FPS (1024 spf)
Compression mode                         : Lossy
Stream size                              : 140 MiB (8%)
Default                                  : Yes
Alternate group                          : 1


               
Category:Movies > Bollywood
Lang:Hindi
Total Size:1.74 GB
Info Hash:3cfd667c8e501d6fc1b8119530f5bedd06d0c2bd
Added By:Unknown
Date Added:17-04-2017 14:31:49
Downloads:289

Download Torrent

Ratings:Not Yet Rated (Log in to rate it)


Tracker:
udp://tracker.coppersurfer.tk:6969/announce


File List: 


Comments

<< Previous      Next >>
1 - 1

[Report] Posted: 25-12-2017 at 12:55:31
deepudas



Uploaded: 0.00 B
Downloaded: 0.00 B
Ratio: ---

seed request plz.

1 - 1
<< Previous      Next >>


Powered by 10 Hamsters v2-svn -|- Page Generated In 1.462891 secs.
-|- RSS Feed -|- Feed Info
Theme By: Nikkbu